Video Sources 229 Views

  • Watch trailer
Madrid, 1987 (2011)

Madrid, 1987 (2011)

Sep. 22, 2011Spain104 Min.N/A
Your rating: 0
7 1 vote

Synopsis

Two characters: old and young; teacher and pupil; man and woman. Four walls within which they conjure intellectualism, relive the profession (journalism), explore politics and discover each other.

Madrid, 1987 (2011) 720p DVDrip HEVC 10bit AAC 2.0 PoOlLa (490 MB)

Format : Matroska
Format version : Version 4
File size : 491 MiB
Duration : 1 h 40 min
Overall bit rate : 681 kb/s
Movie name : Madrid, 1987 (2011) DVD Remux AC3 2.0 PoOlLa
Writing application : mkvmerge v59.0.0 (‘Shining Star’) 64-bit
Writing library : libebml v1.4.2 + libmatroska v1.6.4

Video
ID : 1
Format : HEVC
Format/Info : High Efficiency Video Coding
Format profile : Main 10@L4@Main
Codec ID : V_MPEGH/ISO/HEVC
Duration : 1 h 40 min
Bit rate : 593 kb/s
Width : 1 280 pixels
Height : 690 pixels
Display aspect ratio : 1.85:1
Frame rate mode : Constant
Frame rate : 25.000 FPS
Color space : YUV
Chroma subsampling : 4:2:0
Bit depth : 10 bits
Bits/(Pixel*Frame) : 0.027
Stream size : 428 MiB (87%)
Title : Encoded by PoOlLa | cinemakottaga.ml
Color range : Limited
Transfer characteristics : BT.709

Audio
ID : 2
Format : AAC LC SBR
Format/Info : Advanced Audio Codec Low Complexity with Spectral Band Replication
Commercial name : HE-AAC
Format settings : Explicit
Codec ID : A_AAC-2
Duration : 1 h 40 min
Bit rate : 86.0 kb/s
Channel(s) : 2 channels
Channel layout : L R
Sampling rate : 48.0 kHz
Frame rate : 23.438 FPS (2048 SPF)
Compression mode : Lossy
Delay relative to video : 23 ms
Stream size : 62.1 MiB (13%)
Language : Spanish

Text
ID : 3
Format : UTF-8
Codec ID : S_TEXT/UTF8
Codec ID/Info : UTF-8 Plain Text
Stream size : 45.5 KiB (0%)
Language : English

Telegram  Download Guide  Donate

Madrid, 1987 (2011)
Original title Madrid, 1987
IMDb Rating 6.3 1,880 votes
TMDb Rating 6.5 38 votes

Director

David Trueba
Director

Cast

Alberto Ferreiro isHombre del patio (voice)
Hombre del patio (voice)
Bárbara de Lemus isMujer autógrafo
Mujer autógrafo

Similar titles

Skater Girl (2021)
Philomena (2013)
One (2021)
Nayattu (2021)
The Housekeeper (2002)
Scarface
The Handmaiden (2016)
Remember the Titans (2000)
Abhijan (1962)
Black Book (2006)
L’Eclisse (1962)
Prisoner of the Mountains (1996)
CinemaKottaga