Video Sources 1696 Views

  • Watch trailer
Malik (2021)

Malik (2021)

Jul. 15, 2021India161 Min.N/A
Your rating: 0
8 1 vote

Synopsis

A past ridden with crime, death and pain is recounted to Freddy, a juvenile criminal, who has been assigned to eliminate his estranged uncle Sulaiman, an aging patriarch, while behind bars.

Malik (2021) 2160p AMZN WEB-DL HEVC 10bit DDP 5.1 PoOlLa (4.8 GB)

Format : Matroska
Format version : Version 4
File size : 4.86 GiB
Duration : 2 h 41 min
Overall bit rate : 4 312 kb/s
Writing application : Lavf58.76.100
Writing library : Lavf58.76.100
Comment : Ripped By PoOlLa @ cinemakottaga.ml
ErrorDetectionType : Per level 1

Video
ID : 1
Format : HEVC
Format/Info : High Efficiency Video Coding
Format profile : Main [email protected]@Main
Codec ID : V_MPEGH/ISO/HEVC
Duration : 2 h 41 min
Bit rate : 3 586 kb/s
Width : 3 840 pixels
Height : 1 632 pixels
Display aspect ratio : 2.35:1
Frame rate mode : Constant
Frame rate : 24.000 FPS
Color space : YUV
Chroma subsampling : 4:2:0
Bit depth : 10 bits
Bits/(Pixel*Frame) : 0.024
Stream size : 4.04 GiB (83%)
Writing library : Lavc58.134.100 hevc_nvenc
Default : Yes
Forced : No
Color range : Limited
Color primaries : BT.709
Transfer characteristics : BT.709
Matrix coefficients : BT.709

Audio
ID : 2
Format : E-AC-3
Format/Info : Enhanced AC-3
Commercial name : Dolby Digital Plus
Codec ID : A_EAC3
Duration : 2 h 41 min
Bit rate mode : Constant
Bit rate : 640 kb/s
Channel(s) : 6 channels
Channel layout : L R C LFE Ls Rs
Sampling rate : 48.0 kHz
Frame rate : 31.250 FPS (1536 SPF)
Bit depth : 32 bits
Compression mode : Lossy
Stream size : 738 MiB (15%)
Service kind : Complete Main
Default : Yes
Forced : No

Text
ID : 3
Format : UTF-8
Codec ID : S_TEXT/UTF8
Codec ID/Info : UTF-8 Plain Text
Duration : 2 h 39 min
Default : Yes
Forced : No

Malik (2021) 1080p AMZN WEB-DL HEVC 10bit AAC 5.1 PoOlLa (2.2 GB)

Format : Matroska
Format version : Version 4
File size : 2.26 GiB
Duration : 2 h 41 min
Overall bit rate : 2 009 kb/s
Writing application : Lavf58.76.100
Writing library : Lavf58.76.100
Comment : Ripped By PoOlLa @ cinemakottaga.ml
ErrorDetectionType : Per level 1

Video
ID : 1
Format : HEVC
Format/Info : High Efficiency Video Coding
Format profile : Main [email protected]@Main
Codec ID : V_MPEGH/ISO/HEVC
Duration : 2 h 41 min
Width : 1 920 pixels
Height : 816 pixels
Display aspect ratio : 2.35:1
Frame rate mode : Variable
Original frame rate : 24.000 FPS
Color space : YUV
Chroma subsampling : 4:2:0
Bit depth : 10 bits
Writing library : Lavc58.134.100 hevc_nvenc
Default : Yes
Forced : No
Color range : Limited
Color primaries : BT.709
Transfer characteristics : BT.709
Matrix coefficients : BT.709

Audio
ID : 2
Format : AAC LC
Format/Info : Advanced Audio Codec Low Complexity
Codec ID : A_AAC-2
Duration : 2 h 41 min
Channel(s) : 6 channels
Channel layout : C L R Ls Rs LFE
Sampling rate : 48.0 kHz
Frame rate : 46.875 FPS (1024 SPF)
Compression mode : Lossy
Writing library : Lavc58.134.100 libfdk_aac
Default : Yes
Forced : No

Text
ID : 3
Format : UTF-8
Codec ID : S_TEXT/UTF8
Codec ID/Info : UTF-8 Plain Text
Duration : 2 h 39 min
Default : Yes
Forced : No

Malik (2021) 1080p AMZN WEB-DL AV1 Opus 5.1 SMK (750 MB)

Format : Matroska
Format version : Version 4
File size : 753 MiB
Duration : 2 h 41 min
Overall bit rate : 653 kb/s
Encoded date : UTC 2021-07-17 01:15:41
Writing application : mkvmerge v56.1.0 (‘My Friend’) 64-bit
Writing library : libebml v1.4.2 + libmatroska v1.6.4

Video
ID : 1
Format : AV1
Format/Info : AOMedia Video 1
Format profile : [email protected]
Codec ID : V_AV1
Duration : 2 h 41 min
Bit rate : 455 kb/s
Width : 1 920 pixels
Height : 816 pixels
Display aspect ratio : 2.35:1
Frame rate mode : Constant
Frame rate : 24.000 FPS
Color space : YUV
Chroma subsampling : 4:2:0
Bit depth : 8 bits
Bits/(Pixel*Frame) : 0.012
Stream size : 525 MiB (70%)
Default : Yes
Forced : No
Color range : Limited

Audio
ID : 2
Format : Opus
Codec ID : A_OPUS
Duration : 2 h 41 min
Bit rate : 196 kb/s
Channel(s) : 6 channels
Channel layout : L R C Lb Rb LFE
Sampling rate : 48.0 kHz
Frame rate : 50.000 FPS (960 SPF)
Compression mode : Lossy
Stream size : 226 MiB (30%)
Writing library : Lavc59.1.100 libopus
Language : Malay
Default : No
Forced : No

Text #1
ID : 3
Format : UTF-8
Codec ID : S_TEXT/UTF8
Codec ID/Info : UTF-8 Plain Text
Duration : 2 h 36 min
Bit rate : 49 b/s
Count of elements : 1568
Stream size : 56.8 KiB (0%)
Title : English [SDH]
Language : English
Default : No
Forced : No

Text #2
ID : 4
Format : UTF-8
Codec ID : S_TEXT/UTF8
Codec ID/Info : UTF-8 Plain Text
Duration : 2 h 36 min
Bit rate : 49 b/s
Count of elements : 1560
Stream size : 56.5 KiB (0%)
Title : English
Language : English
Default : No
Forced : No

Malik (2021) 720p AMZN WEB-DL HEVC 10bit Opus 2.0-MPEG7 (800 MB)

Format : Matroska
Format version : Version 4
File size : 808 MiB
Duration : 2 h 41 min
Overall bit rate : 700 kb/s
Writing application : Lavf59.2.101
Writing library : Lavf59.2.101
ErrorDetectionType : Per level 1

Video
ID : 1
Format : HEVC
Format/Info : High Efficiency Video Coding
Format profile : Main [email protected]@Main
Codec ID : V_MPEGH/ISO/HEVC
Duration : 2 h 41 min
Width : 1 280 pixels
Height : 544 pixels
Display aspect ratio : 2.35:1
Frame rate mode : Variable
Original frame rate : 24.000 FPS
Color space : YUV
Chroma subsampling : 4:2:0
Bit depth : 10 bits
Title : MPEG7 | www.cinemakottaga.ml
Writing library : Lavc59.1.100 libx265
Default : Yes
Forced : No
Color range : Limited
Color primaries : BT.709
Transfer characteristics : BT.709
Matrix coefficients : BT.709

Audio
ID : 2
Format : Opus
Codec ID : A_OPUS
Duration : 2 h 41 min
Channel(s) : 2 channels
Channel layout : L R
Sampling rate : 48.0 kHz
Bit depth : 32 bits
Compression mode : Lossy
Title : MPEG7 | www.cinemakottaga.ml
Writing library : Lavc59.1.100 libopus
Default : Yes
Forced : No

Text
ID : 3
Format : UTF-8
Codec ID : S_TEXT/UTF8
Codec ID/Info : UTF-8 Plain Text
Duration : 2 h 39 min
Title : MPEG7 | www.cinemakottaga.ml
Default : Yes
Forced : No

Telegram  Download Guide  Donate

Malik (2021)
Malik (2021)
Original title മാലിക്
IMDb Rating 8.5 6,464 votes
TMDb Rating 8.1 17 votes

Director

Cast

Fahadh Faasil isAhammadali Sulaiman
Ahammadali Sulaiman
Vinay Forrt isDavid Christudas
David Christudas
Jalaja isJameela (Sulaiman's Mother)
Jameela (Sulaiman's Mother)
Salim Kumar isMoosakka
Moosakka
Joju George isAnwar Ali
Anwar Ali
Dileesh Pothan isAboobacker
Aboobacker
Parvathy Krishna isDr. Shermin
Dr. Shermin
Dinesh Prabhakar isPeter Esthappan
Peter Esthappan

Similar titles

Godha (2017)
Rurouni Kenshin: The Final (2021)
Housekeeping (1987)
Roberrt (2021)
The Dark Side of the Heart
Iblis
Coming Home (2014)
Flic Story
The Song of Sparrows (2008)
Rams (2015)
Captain America: The First Avenger
Degree College (2020)
CinemaKottaga