Video Sources 5658 Views

  • Watch trailer
Master (2021)

Master (2021)

Jan. 13, 2021India179 Min.N/A
Your rating: 0
7 2 votes

Synopsis

An alcoholic professor is sent to a juvenile school, where he clashes with a gangster, who uses the children of the school for criminal activities.

Master (2021) 720p Webdl Dolby HEVC 2CH x265 BY SNR(1.45gb)

General
File size : 1.45gb
Video Format : HEVC
Format/Info : High Efficiency Video Coding
Width : 1080 pixels
Height : 568 pixels

Audio
Channel(s) : 2 channels
Language : Tamil

Text
Format : with subtitle

 

Master (2021) Tamil 1080p Untouched SS WEB-DL X264 AAC 2.0 PoOlLa (4.9 GB)

Download Master (2021)

Format : MPEG-4
Format profile : Base Media
Codec ID : isom (isom/iso2/avc1/mp41)
File size : 4.98 GiB
Duration : 2 h 50 min
Overall bit rate : 4 175 kb/s

Video
ID : 1
Format : AVC
Format/Info : Advanced Video Codec
Format profile : [email protected]
Format settings : CABAC / 4 Ref Frames
Format settings, CABAC : Yes
Format settings, Reference : 4 frames
Codec ID : avc1
Codec ID/Info : Advanced Video Coding
Duration : 2 h 50 min
Bit rate : 3 880 kb/s
Nominal bit rate : 4 096 kb/s
Width : 1 920 pixels
Height : 1 080 pixels
Display aspect ratio : 16:9
Frame rate mode : Constant
Frame rate : 25.000 FPS
Color space : YUV
Chroma subsampling : 4:2:0
Bit depth : 8 bits
Scan type : Progressive
Bits/(Pixel*Frame) : 0.075
Stream size : 4.63 GiB (93%)
Writing library : x264 core 152 r2854 e9a5903
Encoding settings : cabac=1 / ref=3 / deblock=1:0:0 / analyse=0x3:0x113 / me=hex / subme=7 / psy=1 / psy_rd=1.00:0.00 / mixed_ref=1 / me_range=16 / chroma_me=1 / trellis=1 / 8x8dct=1 / cqm=0 / deadzone=21,11 / fast_pskip=1 / chroma_qp_offset=-2 / threads=12 / lookahead_threads=2 / sliced_threads=0 / nr=0 / decimate=1 / interlaced=0 / bluray_compat=0 / constrained_intra=0 / bframes=3 / b_pyramid=2 / b_adapt=1 / b_bias=0 / direct=1 / weightb=1 / open_gop=0 / weightp=2 / keyint=125 / keyint_min=63 / scenecut=0 / intra_refresh=0 / rc_lookahead=40 / rc=cbr / mbtree=1 / bitrate=4096 / ratetol=1.0 / qcomp=0.60 / qpmin=0 / qpmax=69 / qpstep=4 / vbv_maxrate=4096 / vbv_bufsize=8192 / nal_hrd=none / filler=0 / ip_ratio=1.40 / aq=1:1.00
Codec configuration box : avcC

Audio
ID : 2
Format : AAC LC
Format/Info : Advanced Audio Codec Low Complexity
Codec ID : mp4a-40-2
Duration : 2 h 50 min
Bit rate mode : Constant
Bit rate : 288 kb/s
Channel(s) : 2 channels
Channel layout : L R
Sampling rate : 48.0 kHz
Frame rate : 46.875 FPS (1024 SPF)
Compression mode : Lossy
Stream size : 352 MiB (7%)
Default : Yes
Alternate group : 1



Master (2020) Tamil 720p Untouched SS WEB-DL X264 AAC 2.0 PoOlLa (2.6 GB)

Download Master (2021)

Format : MPEG-4
Format profile : Base Media
Codec ID : isom (isom/iso2/avc1/mp41)
File size : 2.63 GiB
Duration : 2 h 50 min
Overall bit rate : 2 202 kb/s

Video
ID : 1
Format : AVC
Format/Info : Advanced Video Codec
Format profile : [email protected]
Format settings : CABAC / 4 Ref Frames
Format settings, CABAC : Yes
Format settings, Reference : 4 frames
Codec ID : avc1
Codec ID/Info : Advanced Video Coding
Duration : 2 h 50 min
Bit rate : 1 909 kb/s
Nominal bit rate : 2 048 kb/s
Width : 1 280 pixels
Height : 720 pixels
Display aspect ratio : 16:9
Frame rate mode : Variable
Frame rate : 25.000 FPS
Minimum frame rate : 0.373 FPS
Maximum frame rate : 25.000 FPS
Color space : YUV
Chroma subsampling : 4:2:0
Bit depth : 8 bits
Scan type : Progressive
Bits/(Pixel*Frame) : 0.083
Stream size : 2.27 GiB (87%)
Writing library : x264 core 152 r2854 e9a5903
Encoding settings : cabac=1 / ref=3 / deblock=1:0:0 / analyse=0x1:0x111 / me=hex / subme=7 / psy=1 / psy_rd=1.00:0.00 / mixed_ref=1 / me_range=16 / chroma_me=1 / trellis=1 / 8x8dct=0 / cqm=0 / deadzone=21,11 / fast_pskip=1 / chroma_qp_offset=-2 / threads=12 / lookahead_threads=2 / sliced_threads=0 / nr=0 / decimate=1 / interlaced=0 / bluray_compat=0 / constrained_intra=0 / bframes=3 / b_pyramid=2 / b_adapt=1 / b_bias=0 / direct=1 / weightb=1 / open_gop=0 / weightp=2 / keyint=125 / keyint_min=63 / scenecut=0 / intra_refresh=0 / rc_lookahead=40 / rc=cbr / mbtree=1 / bitrate=2048 / ratetol=1.0 / qcomp=0.60 / qpmin=0 / qpmax=69 / qpstep=4 / vbv_maxrate=2048 / vbv_bufsize=4096 / nal_hrd=none / filler=0 / ip_ratio=1.40 / aq=1:1.00
Codec configuration box : avcC

Audio
ID : 2
Format : AAC LC
Format/Info : Advanced Audio Codec Low Complexity
Codec ID : mp4a-40-2
Duration : 2 h 50 min
Bit rate mode : Constant
Bit rate : 288 kb/s
Channel(s) : 2 channels
Channel layout : L R
Sampling rate : 48.0 kHz
Frame rate : 46.875 FPS (1024 SPF)
Compression mode : Lossy
Stream size : 352 MiB (13%)
Default : Yes




Master (2021) Tamil 1080p HEVC AMZN WEBDL x265 DDP 5.1 (640kbps) 7Gb Esub -JrRip

General
File size : 7Gb 

Duration : 02:57 hr
Source : AMZN
Video
Format : HEVC
Format/Info : High Efficiency Video Coding
Width : 1920 pixels
Height : 816 pixels
span style=”font-family: ‘andale mono’, monospace;”>Bitrate : 5000 kbps
Bit Depth : 8bit

Audio
Format : AC3
Format/Info : Dolby Digital Plus
Channel(s) : 6 Channels
span style=”font-family: ‘andale mono’, monospace;”>Bitrate : 640kbps
Language : Tamil  

Text
Format : Srt
Language :English



Master (2021) Tamil 1080p AMZN WEB-DL HEVC 10bit DDP 5.1 PoOlLa (3.1 GB)

Download Master (2021)

Format : Matroska
Format version : Version 4
File size : 3.11 GiB
Duration : 2 h 57 min
Overall bit rate : 2 504 kb/s
Movie name : Encoded By PoOlLa | cinemakottaga.ml
Encoded date : UTC 2021-01-30 09:12:57
Writing application : mkvmerge v52.0.0 (‘Secret For The Mad’) 64-bit
Writing library : libebml v1.4.1 + libmatroska v1.6.2

Video
ID : 1
Format : HEVC
Format/Info : High Efficiency Video Coding
Format profile : Main [email protected]@Main
Codec ID : V_MPEGH/ISO/HEVC
Duration : 2 h 57 min
Bit rate : 1 862 kb/s
Width : 1 920 pixels
Height : 816 pixels
Display aspect ratio : 2.35:1
Frame rate mode : Constant
Frame rate : 24.000 FPS
Color space : YUV
Chroma subsampling : 4:2:0
Bit depth : 10 bits
Bits/(Pixel*Frame) : 0.050
Stream size : 2.31 GiB (74%)
Default : Yes
Forced : No
Color range : Limited
Color primaries : BT.709
Transfer characteristics : BT.709
Matrix coefficients : BT.709

Audio
ID : 2
Format : E-AC-3
Format/Info : Enhanced AC-3
Commercial name : Dolby Digital Plus
Codec ID : A_EAC3
Duration : 2 h 57 min
Bit rate mode : Constant
Bit rate : 640 kb/s
Channel(s) : 6 channels
Channel layout : L R C LFE Ls Rs
Sampling rate : 48.0 kHz
Frame rate : 31.250 FPS (1536 SPF)
Compression mode : Lossy
Stream size : 813 MiB (26%)
Language : Tamil
Service kind : Complete Main
Default : No
Forced : No

Text
ID : 3
Format : UTF-8
Codec ID : S_TEXT/UTF8
Codec ID/Info : UTF-8 Plain Text
Duration : 2 h 55 min
Bit rate : 72 b/s
Count of elements : 2799
Stream size : 93.4 KiB (0%)
Title : English
Language : English
Default : Yes
Forced : No

Gdrive   Prime  


Master (2021) Tamil 1080p AMZN WEB-DL HEVC 10bit AAC 5.1 PoOlLa (2.7 GB)

Download Master (2021)

Format : Matroska
Format version : Version 4
File size : 2.70 GiB
Duration : 2 h 57 min
Overall bit rate : 2 177 kb/s
Movie name : Encoded By PoOlLa | cinemakottaga.ml
Encoded date : UTC 2021-01-30 10:43:31
Writing application : mkvmerge v51.0.0 (‘I Wish’) 64-bit
Writing library : libebml v1.4.0 + libmatroska v1.6.2

Video
ID : 1
Format : HEVC
Format/Info : High Efficiency Video Coding
Format profile : Main [email protected]@Main
Codec ID : V_MPEGH/ISO/HEVC
Duration : 2 h 57 min
Bit rate : 1 862 kb/s
Width : 1 920 pixels
Height : 816 pixels
Display aspect ratio : 2.35:1
Frame rate mode : Constant
Frame rate : 24.000 FPS
Color space : YUV
Chroma subsampling : 4:2:0
Bit depth : 10 bits
Bits/(Pixel*Frame) : 0.050
Stream size : 2.31 GiB (86%)
Title : cinemakottaga.ml
Default : Yes
Forced : No
Color range : Limited
Color primaries : BT.709
Transfer characteristics : BT.709
Matrix coefficients : BT.709

Audio
ID : 2
Format : AAC LC
Format/Info : Advanced Audio Codec Low Complexity
Codec ID : A_AAC-2
Duration : 2 h 57 min
Bit rate : 312 kb/s
Channel(s) : 6 channels
Channel layout : C L R Ls Rs LFE
Sampling rate : 48.0 kHz
Frame rate : 46.875 FPS (1024 SPF)
Compression mode : Lossy
Stream size : 396 MiB (14%)
Language : Tamil
Default : Yes
Forced : No

Text
ID : 3
Format : UTF-8
Codec ID : S_TEXT/UTF8
Codec ID/Info : UTF-8 Plain Text
Duration : 2 h 55 min
Bit rate : 72 b/s
Count of elements : 2799
Stream size : 93.4 KiB (0%)
Title : English
Language : English
Default : Yes
Forced : No



Master (2021) Tamil 720p AMZN WEB-DL HEVC 10bit AAC 2.0 PoOlLa (1.1 GB)

Download Master (2021)

Format : Matroska
Format version : Version 4
File size : 1.11 GiB
Duration : 2 h 57 min
Overall bit rate : 894 kb/s
Movie name : Encoded By PoOlLa | cinemakottaga.ml
Encoded date : UTC 2021-01-29 03:21:26
Writing application : mkvmerge v52.0.0 (‘Secret For The Mad’) 64-bit
Writing library : libebml v1.4.1 + libmatroska v1.6.2

Video
ID : 1
Format : HEVC
Format/Info : High Efficiency Video Coding
Format profile : Main [email protected]@Main
Codec ID : V_MPEGH/ISO/HEVC
Duration : 2 h 57 min
Bit rate : 820 kb/s
Width : 1 280 pixels
Height : 544 pixels
Display aspect ratio : 2.35:1
Frame rate mode : Constant
Frame rate : 24.000 FPS
Color space : YUV
Chroma subsampling : 4:2:0
Bit depth : 10 bits
Bits/(Pixel*Frame) : 0.049
Stream size : 1.02 GiB (92%)
Default : Yes
Forced : No
Color range : Limited
Color primaries : BT.709
Transfer characteristics : BT.709
Matrix coefficients : BT.709

Audio
ID : 2
Format : AAC LC SBR
Format/Info : Advanced Audio Codec Low Complexity with Spectral Band Replication
Commercial name : HE-AAC
Format settings : Explicit
Codec ID : A_AAC-2
Duration : 2 h 57 min
Bit rate : 72.0 kb/s
Channel(s) : 2 channels
Channel layout : L R
Sampling rate : 48.0 kHz
Frame rate : 23.438 FPS (2048 SPF)
Compression mode : Lossy
Delay relative to video : 23 ms
Stream size : 91.4 MiB (8%)
Title : cinemakottaga.ml
Language : Tamil
Default : Yes
Forced : No

Text
ID : 3
Format : UTF-8
Codec ID : S_TEXT/UTF8
Codec ID/Info : UTF-8 Plain Text
Duration : 2 h 55 min
Bit rate : 72 b/s
Count of elements : 2799
Stream size : 93.4 KiB (0%)
Title : English
Language : English
Default : Yes
Forced : No



Master (2021) Tamil 720p TK UHD WEB-DL HEVC AAC 2.0 PoOlLa (890 MB)

Format : Matroska
Format version : Version 4
File size : 893 MiB
Duration : 2 h 57 min
Overall bit rate : 705 kb/s
Movie name : Encoded By PoOlLa | cinemakottaga.ml
Encoded date : UTC 2021-01-29 14:15:30
Writing application : mkvmerge v52.0.0 (‘Secret For The Mad’) 64-bit
Writing library : libebml v1.4.1 + libmatroska v1.6.2

Video
ID : 1
Format : HEVC
Format/Info : High Efficiency Video Coding
Format profile : [email protected]@Main
Codec ID : V_MPEGH/ISO/HEVC
Duration : 2 h 57 min
Bit rate : 637 kb/s
Width : 1 280 pixels
Height : 538 pixels
Display aspect ratio : 2.40:1
Frame rate mode : Constant
Frame rate : 23.976 (24000/1001) FPS
Color space : YUV
Chroma subsampling : 4:2:0
Bit depth : 8 bits
Bits/(Pixel*Frame) : 0.039
Stream size : 807 MiB (90%)
Default : Yes
Forced : No
Color range : Limited
Color primaries : BT.709
Transfer characteristics : BT.709
Matrix coefficients : BT.709

Audio
ID : 2
Format : AAC LC SBR
Format/Info : Advanced Audio Codec Low Complexity with Spectral Band Replication
Commercial name : HE-AAC
Format settings : Explicit
Codec ID : A_AAC-2
Duration : 2 h 57 min
Bit rate : 66.2 kb/s
Channel(s) : 2 channels
Channel layout : L R
Sampling rate : 48.0 kHz
Frame rate : 23.438 FPS (2048 SPF)
Compression mode : Lossy
Delay relative to video : 32 ms
Stream size : 83.7 MiB (9%)
Language : Tamil
Default : Yes
Forced : No

Text
ID : 3
Format : UTF-8
Codec ID : S_TEXT/UTF8
Codec ID/Info : UTF-8 Plain Text
Duration : 2 h 55 min
Bit rate : 72 b/s
Count of elements : 2804
Stream size : 93.5 KiB (0%)
Title : cinemakottaga.ml
Language : English
Default : Yes
Forced : No

Master (2021) Tamil 720p AMZN WEB-DL X264 AAC 5.1 PoOlLa (2.3 GB)

Format : MPEG-4
Format profile : Base Media
Codec ID : isom (isom/avc1/iso6)
File size : 2.33 GiB
Duration : 2 h 57 min
Overall bit rate mode : Variable
Overall bit rate : 1 880 kb/s
Encoded date : UTC 2021-01-29 07:23:42
Tagged date : UTC 2021-01-29 07:23:42

Video
ID : 1
Format : AVC
Format/Info : Advanced Video Codec
Format profile : [email protected]
Format settings : CABAC / 3 Ref Frames
Format settings, CABAC : Yes
Format settings, Reference : 3 frames
Codec ID : avc1
Codec ID/Info : Advanced Video Coding
Duration : 2 h 57 min
Bit rate : 1 621 kb/s
Maximum bit rate : 10.4 Mb/s
Width : 1 280 pixels
Height : 544 pixels
Display aspect ratio : 2.35:1
Frame rate mode : Constant
Frame rate : 24.000 FPS
Color space : YUV
Chroma subsampling : 4:2:0
Bit depth : 8 bits
Scan type : Progressive
Bits/(Pixel*Frame) : 0.097
Stream size : 2.01 GiB (86%)
Writing library : x264M – core 161 r3027 4121277
Color range : Limited
Color primaries : BT.709
Transfer characteristics : BT.709
Matrix coefficients : BT.709
Codec configuration box : avcC

Audio
ID : 2
Format : AAC LC
Format/Info : Advanced Audio Codec Low Complexity
Codec ID : mp4a-40-2
Duration : 2 h 57 min
Bit rate mode : Variable
Bit rate : 256 kb/s
Maximum bit rate : 270 kb/s
Channel(s) : 6 channels
Channel layout : C L R Ls Rs LFE
Sampling rate : 48.0 kHz
Frame rate : 46.875 FPS (1024 SPF)
Compression mode : Lossy
Stream size : 325 MiB (14%)
Title : Tamil
Language : Tamil
Default : Yes
Alternate group : 1
Tagged date : UTC 2021-01-29 07:24:24

Text
ID : 3
Format : Timed Text
Codec ID : tx3g
Duration : 2 h 57 min
Bit rate mode : Variable
Bit rate : 79 b/s
Stream size : 103 KiB (0%)
Title : English
Language : English
Forced : No

 

Master (2021) Tamil 720p AMZN WEB-DL X264 AAC 2.0 PoOlLa (2.1 GB)

Format : MPEG-4
Format profile : Base Media
Codec ID : isom (isom/avc1/iso6)
File size : 2.15 GiB
Duration : 2 h 57 min
Overall bit rate mode : Variable
Overall bit rate : 1 730 kb/s
Encoded date : UTC 2021-01-29 07:21:47
Tagged date : UTC 2021-01-29 07:21:47

Video
ID : 1
Format : AVC
Format/Info : Advanced Video Codec
Format profile : [email protected]
Format settings : CABAC / 3 Ref Frames
Format settings, CABAC : Yes
Format settings, Reference : 3 frames
Codec ID : avc1
Codec ID/Info : Advanced Video Coding
Duration : 2 h 57 min
Bit rate : 1 621 kb/s
Maximum bit rate : 10.4 Mb/s
Width : 1 280 pixels
Height : 544 pixels
Display aspect ratio : 2.35:1
Frame rate mode : Constant
Frame rate : 24.000 FPS
Color space : YUV
Chroma subsampling : 4:2:0
Bit depth : 8 bits
Scan type : Progressive
Bits/(Pixel*Frame) : 0.097
Stream size : 2.01 GiB (94%)
Writing library : x264M – core 161 r3027 4121277
Color range : Limited
Color primaries : BT.709
Transfer characteristics : BT.709
Matrix coefficients : BT.709
Codec configuration box : avcC

Audio
ID : 2
Format : AAC LC
Format/Info : Advanced Audio Codec Low Complexity
Codec ID : mp4a-40-2
Duration : 2 h 57 min
Bit rate mode : Variable
Bit rate : 106 kb/s
Maximum bit rate : 203 kb/s
Channel(s) : 2 channels
Channel layout : L R
Sampling rate : 48.0 kHz
Frame rate : 46.875 FPS (1024 SPF)
Compression mode : Lossy
Stream size : 134 MiB (6%)
Title : Tamil
Language : Tamil
Encoded date : UTC 2021-01-29 03:21:40
Tagged date : UTC 2021-01-29 07:22:36

Text
ID : 3
Format : Timed Text
Codec ID : tx3g
Duration : 2 h 57 min
Bit rate mode : Variable
Bit rate : 79 b/s
Stream size : 103 KiB (0%)
Title : English
Language : English
Forced : No

 

Telegram  Download Guide  Donate

Master (2021)
Master (2021)
Master (2021)
Original title மாஸ்டர்
IMDb Rating 7.1 48,408 votes
TMDb Rating 7.1 8 votes

Director

Cast

Vijay isJohn
John "JD" Durairaj
Malavika Mohanan isChaarulatha
Chaarulatha "Chaaru" Prasad
Nassar isCollege Founder
College Founder
Sanjeev isJD's friend
JD's friend

Similar titles

Hitman’s Wife’s Bodyguard (2021)
Parava
Nibunan (2017)
Only God Forgives (2013)
Kavaludaari (2019)
Dogville (2003)
Andhaghaaram (2020)
Aadu Oru Bheegara Jeevi Aanu(2015)
Judas and the Black Messiah (2021)
The Lives of Others (2006)
Ayyappanum Koshiyum
Hard Candy (2005)
CinemaKottaga