Video Sources 102 Views

  • Watch trailer
Molly’s Game (2017)

Molly’s Game (2017)

Deal with her.Jan. 01, 2017China140 Min.R
Your rating: 0
7 1 vote

Synopsis

Molly Bloom, a young skier and former Olympic hopeful becomes a successful entrepreneur (and a target of an FBI investigation) when she establishes a high-stakes, international poker game.

Molly’s.Game.2017.720p.10bit.BluRay.x265.2CH.HEVC-MPEG7 (509MB)

Source …: Molly’s.Game.2017.BluRay.1080p.DTS-HD.MA.7.1.AVC.REMUX-FraMeSToR

Format : Matroska
Format version : Version 4
File size : 509 MiB
Duration : 2 h 20 min
Overall bit rate : 505 kb/s
Movie name : MPEG7 | Molly’s.Game.2017.720p.10bit.BluRay.x265.2CH.HEVC-MPEG7 | www.cinemakottaga.ml
Encoded date : UTC 2021-11-15 19:08:00
Writing application : mkvmerge v63.0.0 (‘Everything’) 64-bit
Writing library : libebml v1.4.2 + libmatroska v1.6.4
Cover : Yes
Attachments : cover.jpg

Video
ID : 1
Format : HEVC
Format/Info : High Efficiency Video Coding
Format profile : Main 10@L3.1@Main
Codec ID : V_MPEGH/ISO/HEVC
Duration : 2 h 20 min
Bit rate : 413 kb/s
Width : 1 280 pixels
Height : 534 pixels
Display aspect ratio : 2.40:1
Frame rate mode : Constant
Frame rate : 23.976 (24000/1001) FPS
Color space : YUV
Chroma subsampling : 4:2:0
Bit depth : 10 bits
Bits/(Pixel*Frame) : 0.025
Stream size : 416 MiB (82%)
Title : MPEG7 | www.cinemakottaga.ml
Default : Yes
Forced : No
Color range : Limited
Color primaries : BT.709
Transfer characteristics : BT.709
Matrix coefficients : BT.709

Audio
ID : 2
Format : AAC LC SBR
Format/Info : Advanced Audio Codec Low Complexity with Spectral Band Replication
Commercial name : HE-AAC
Format settings : NBC
Codec ID : A_AAC-5
Duration : 2 h 20 min
Bit rate : 68.0 kb/s
Channel(s) : 2 channels
Channel layout : L R
Sampling rate : 48.0 kHz
Frame rate : 23.438 FPS (2048 SPF)
Compression mode : Lossy
Stream size : 68.6 MiB (13%)
Title : MPEG7 | www.cinemakottaga.ml
Language : English
Default : Yes
Forced : No

Text
ID : 3
Format : PGS
Muxing mode : zlib
Codec ID : S_HDMV/PGS
Codec ID/Info : Picture based subtitle format used on BDs/HD-DVDs
Duration : 2 h 12 min
Bit rate : 75.8 kb/s
Count of elements : 6643
Stream size : 71.7 MiB (14%)
Title : MPEG7 | www.cinemakottaga.ml
Language : English
Default : No
Forced : No

 

Molly’s.Game.2017.1080p.10bit.BluRay.x265.6CH.HEVC-MPEG7 (1.1GB)

Source …: Molly’s.Game.2017.BluRay.1080p.DTS-HD.MA.7.1.AVC.REMUX-FraMeSToR

Format : Matroska
Format version : Version 4
File size : 1.12 GiB
Duration : 2 h 20 min
Overall bit rate : 1 133 kb/s
Movie name : MPEG7 | Molly’s.Game.2017.1080p.10bit.BluRay.x65.6CH.HEVC-MPEG7 | www.cinemakottaga.ml
Encoded date : UTC 2021-11-15 15:26:30
Writing application : mkvmerge v63.0.0 (‘Everything’) 64-bit
Writing library : libebml v1.4.2 + libmatroska v1.6.4
Cover : Yes
Attachments : cover.jpg

Video
ID : 1
Format : HEVC
Format/Info : High Efficiency Video Coding
Format profile : Main 10@L4@High
Codec ID : V_MPEGH/ISO/HEVC
Duration : 2 h 20 min
Bit rate : 885 kb/s
Width : 1 920 pixels
Height : 800 pixels
Display aspect ratio : 2.40:1
Frame rate mode : Constant
Frame rate : 23.976 (24000/1001) FPS
Color space : YUV
Chroma subsampling : 4:2:0
Bit depth : 10 bits
Bits/(Pixel*Frame) : 0.024
Stream size : 892 MiB (78%)
Title : MPEG7 | www.cinemakottaga.ml
Default : Yes
Forced : No
Color range : Limited
Color primaries : BT.709
Transfer characteristics : BT.709
Matrix coefficients : BT.709

Audio
ID : 2
Format : AAC LC SBR
Format/Info : Advanced Audio Codec Low Complexity with Spectral Band Replication
Commercial name : HE-AAC
Format settings : NBC
Codec ID : A_AAC-5
Duration : 2 h 20 min
Bit rate : 224 kb/s
Channel(s) : 6 channels
Channel layout : C L R Ls Rs LFE
Sampling rate : 48.0 kHz
Frame rate : 23.438 FPS (2048 SPF)
Compression mode : Lossy
Stream size : 226 MiB (20%)
Title : MPEG7 | www.cinemakottaga.ml
Language : English
Default : Yes
Forced : No

Text
ID : 3
Format : PGS
Muxing mode : zlib
Codec ID : S_HDMV/PGS
Codec ID/Info : Picture based subtitle format used on BDs/HD-DVDs
Duration : 2 h 12 min
Bit rate : 75.8 kb/s
Count of elements : 6643
Stream size : 71.7 MiB (6%)
Title : MPEG7 | www.cinemakottaga.ml
Language : English
Default : No
Forced : No

Menu
00:00:00.000 : en:Chapter 01
00:05:54.479 : en:Chapter 02
00:09:55.053 : en:Chapter 03
00:16:53.137 : en:Chapter 04
00:24:03.108 : en:Chapter 05
00:29:16.505 : en:Chapter 06
00:39:01.589 : en:Chapter 07
00:48:11.347 : en:Chapter 08
00:54:00.154 : en:Chapter 09
01:04:07.260 : en:Chapter 10
01:11:10.391 : en:Chapter 11
01:18:03.679 : en:Chapter 12
01:23:10.986 : en:Chapter 13
01:29:09.928 : en:Chapter 14
01:34:19.904 : en:Chapter 15
01:44:30.431 : en:Chapter 16
01:53:43.275 : en:Chapter 17
02:01:38.249 : en:Chapter 18
02:07:20.466 : en:Chapter 19
02:13:24.997 : en:Chapter 20

 

 

Telegram  Download Guide  Donate

Molly’s Game (2017)
Molly’s Game (2017)
Molly’s Game (2017)
Molly’s Game (2017)
Molly’s Game (2017)
Molly’s Game (2017)
Molly’s Game (2017)
Molly’s Game (2017)
Molly’s Game (2017)
Molly’s Game (2017)
Original title Molly's Game
IMDb Rating 7.4 157,785 votes
TMDb Rating 7.1 2,935 votes

Director

Aaron Sorkin
Director

Cast

Jessica Chastain isMolly Bloom
Molly Bloom
Idris Elba isCharlie Jaffey
Charlie Jaffey
Kevin Costner isLarry Bloom
Larry Bloom
Michael Cera isPlayer X
Player X
Jeremy Strong isDean Keith
Dean Keith
Chris O'Dowd isDouglas Downey
Douglas Downey
J. C. MacKenzie isHarrison Wellstone
Harrison Wellstone
Bill Camp isHarlan Eustice
Harlan Eustice
Graham Greene isJudge Foxman
Judge Foxman

Similar titles

A Man Who Was Superman (2008)
The Father (2020)
End of Watch (2012)
Satantango
Bhumika (1977)
Irandam Kuththu (2020)
Gandhi (1982)
Happy Wedding (2016)
Doob (2017)
Krack (2021)
The World Is Yours (2018)
Only God Forgives (2013)
CinemaKottaga