Video Sources 290 Views

  • Watch trailer
Munnariyippu (2014)

Munnariyippu (2014)

The deadlineAug. 22, 2014India115 Min.N/A
Your rating: 0
0 0 votes

Synopsis

Raghavan, a simple and lonely man, comes out of jail. His life changes after he meets Anjali, a journalist who wants to prove herself professionally.

Munnariyippu (2014) 1080p WEB-DL HEVC AAC 2.0 PoOlLa (1.5 GB)

Format : Matroska
Format version : Version 4
File size : 1.50 GiB
Duration : 1 h 58 min
Overall bit rate : 1 814 kb/s
Writing application : Lavf59.2.101
Writing library : Lavf59.2.101
ErrorDetectionType : Per level 1

Video
ID : 1
Format : HEVC
Format/Info : High Efficiency Video Coding
Format profile : [email protected]@Main
Codec ID : V_MPEGH/ISO/HEVC
Duration : 1 h 58 min
Width : 1 920 pixels
Height : 816 pixels
Display aspect ratio : 2.35:1
Frame rate mode : Constant
Frame rate : 25.000 FPS
Color space : YUV
Chroma subsampling : 4:2:0
Bit depth : 8 bits
Writing library : Lavc59.1.100 libx265
Default : Yes
Forced : No
Color range : Limited
Color primaries : BT.709
Transfer characteristics : BT.709
Matrix coefficients : BT.709

Audio
ID : 2
Format : AAC LC
Format/Info : Advanced Audio Codec Low Complexity
Codec ID : A_AAC-2
Duration : 1 h 58 min
Channel(s) : 2 channels
Channel layout : L R
Sampling rate : 48.0 kHz
Frame rate : 46.875 FPS (1024 SPF)
Compression mode : Lossy
Delay relative to video : -40 ms
Default : Yes
Forced : No

Munnariyippu (2014) 720p HEVC AAC 5.1 PoOlLa (645 MB)

Format : Matroska
Format version : Version 4
File size : 646 MiB
Duration : 1 h 54 min
Overall bit rate : 786 kb/s
Encoded date : UTC 2016-01-25 15:39:52
Writing application : mkvmerge v8.4.0 (‘A better way to fly’) 64bit
Writing library : libebml v1.3.1 + libmatroska v1.4.2

Video
ID : 1
Format : HEVC
Format/Info : High Efficiency Video Coding
Format profile : [email protected]@Main
Codec ID : V_MPEGH/ISO/HEVC
Duration : 1 h 54 min
Bit rate : 665 kb/s
Width : 1 280 pixels
Height : 544 pixels
Display aspect ratio : 2.35:1
Frame rate mode : Constant
Frame rate : 23.976 (24000/1001) FPS
Color space : YUV
Chroma subsampling : 4:2:0
Bit depth : 8 bits
Bits/(Pixel*Frame) : 0.040
Stream size : 546 MiB (85%)
Writing library : x265 1.8+2-55a4a9b920ff:[Windows][GCC 5.2.0][64 bit] 8bit+10bit+12bit
Default : Yes
Forced : No

Audio
ID : 2
Format : AAC LC SBR
Format/Info : Advanced Audio Codec Low Complexity with Spectral Band Replication
Commercial name : HE-AAC
Format settings : Explicit
Codec ID : A_AAC-2
Duration : 1 h 54 min
Bit rate : 119 kb/s
Channel(s) : 6 channels
Channel layout : C L R Ls Rs LFE
Sampling rate : 48.0 kHz
Frame rate : 23.438 FPS (2048 SPF)
Compression mode : Lossy
Delay relative to video : 40 ms
Stream size : 98.1 MiB (15%)
Language : Malay
Default : Yes
Forced : No

Subtitle: Download (1080p is out of sync)

Telegram  Download Guide  Donate

Munnariyippu (2014)
Original title മുന്നറിയിപ്പ്
IMDb Rating 7.9 3,814 votes
TMDb Rating 7.3 18 votes

Director

Venu
Director

Cast

Mammootty isC.K. Raghavan
C.K. Raghavan
Aparna Gopinath isAnjali Arakkal
Anjali Arakkal
Joy Mathew isChandraji
Chandraji
Nedumudi Venu isRama Moorthy
Rama Moorthy
Kottayam Nazeer isPolice Sub-Inspector
Police Sub-Inspector
V K Sreeraman isSasikumar
Sasikumar
Saiju Kurup isRajeev Thomas
Rajeev Thomas

Similar titles

Mounam Pesiyadhe (2002)
Without Witness (1983)
The Social Dilemma (2020)
Before the Rain (1994)
House of Sand and Fog (2003)
Mayabazar 2016 (2020)
Valley of Flowers (2006)
Anniyan(2005)
The Third Murder (2017)
Only God Forgives (2013)
Il Divo (2008)
The Courier (2021)
CinemaKottaga