Nayattu (2021)

Nayattu (2021)

Apr. 08, 2021India124 Min.N/A
Your rating: 0
9.6 5 votes

Synopsis

Three police officers are forced to go on the run when they get tangled in the death of a youth, a few days before the election.

720p NF WEB-DL 2CH AV1 MPEG7 (275MB) (experimental)

Source ………: 1080p.NF.WEB-DL-DDH
Runtime ……: 2hr 1min
Video ……….: AV1 | 1280 x 678 | 8bit
Audio ……….: 2CH HE-AAC Malayalam
Subs …………: English

1080p NF WEB-DL 2CH AV1 MPEG7 (440MB) (experimental)

Source ………: 1080p.NF.WEB-DL-DDH
Runtime ……: 2hr 1min
Video ……….: AV1 | 1920 x 1016 | 8bit
Audio ……….: 2CH AAC-LC Malayalam
Subs …………: English

720p 10bit NF WEB-DL 2CH HEVC MPEG7 (720MB)

Source ………: 1080p.NF.WEB-DL-DDH
Runtime ……: 2hr 1min
Video ……….: HEVC | 1280 x 672 | 10bit
Audio ……….: 2CH HE-AAC Malayalam
Subs …………: English

1080p NF WEBDL HEVC AAC 5.1 – JrRip (1.4GB)

File ………..: .mkv
Source ………: NF WEBDL- DDH
Video ……….: HEVC | 1920×1016 | 8bit
Audio ……….: 6CH AAC Malayalam
Runtime ……..: ~2:01hr
Subtitles ……: English

 

1080p 10bit NF WEB-DL 6CH AAC HEVC MPEG7 (1.5GB)

Source ………: 1080p.NF.WEB-DL-DDH
Runtime ……: 2hr 1min
Video ……….: HEVC | 1920 x 1008| 10bit
Audio ……….: 6CH AAC-LC Mlylm
Subs …………: English

720p NF WEB-DL X264 AAC 2.0 PoOlLa (1 GB)

nayattu 2021 full movie

Format : MPEG-4
Format profile : Base Media
Codec ID : isom (isom/iso2/avc1/mp41)
File size : 1.06 GiB
Duration : 2 h 1 min
Overall bit rate mode : Variable
Overall bit rate : 1 243 kb/s
Writing application : Lavf58.49.100

Video
ID : 1
Format : AVC
Format/Info : Advanced Video Codec
Format profile : High@L3.1
Format settings : CABAC / 4 Ref Frames
Format settings, CABAC : Yes
Format settings, Reference : 4 frames
Codec ID : avc1
Codec ID/Info : Advanced Video Coding
Duration : 2 h 1 min
Bit rate : 1 094 kb/s
Width : 1 280 pixels
Height : 678 pixels
Display aspect ratio : 1.890
Frame rate mode : Constant
Frame rate : 24.000 FPS
Color space : YUV
Chroma subsampling : 4:2:0
Bit depth : 8 bits
Scan type : Progressive
Bits/(Pixel*Frame) : 0.053
Stream size : 953 MiB (88%)
Color range : Limited
Color primaries : BT.709
Transfer characteristics : BT.709
Matrix coefficients : BT.709
Codec configuration box : avcC

Audio
ID : 2
Format : AAC LC
Format/Info : Advanced Audio Codec Low Complexity
Codec ID : mp4a-40-2
Duration : 2 h 1 min
Duration_LastFrame : -11 ms
Bit rate mode : Constant
Bit rate : 144 kb/s
Channel(s) : 2 channels
Channel layout : L R
Sampling rate : 48.0 kHz
Frame rate : 46.875 FPS (1024 SPF)
Compression mode : Lossy
Stream size : 125 MiB (12%)
Default : Yes
Alternate group : 1

Text
ID : 3
Format : Timed Text
Muxing mode : sbtl
Codec ID : tx3g
Duration : 1 h 58 min
Bit rate mode : Variable
Bit rate : 77 b/s
Stream size : 67.1 KiB (0%)
Default : Yes
Forced : No

1080p SS WEB-DL 6CH DDP Atmos HEVC MPEG7 (1.75GB)

Source ………: 1080p.SS.WEB-DL-DDH
Runtime ……: 2hr 1min
Video ……….: HEVC | 1920 x 1016 | 8bit
Audio ……….: 6CH Dolby Digital Plus with Dolby Atmos Malayalam
Subs …………: English

DDP Atmos 5.1 @768kbps – Audio only (670MB)

Source ………: DDH
Runtime ……: 2hr 1min; 5.1 CHa @ 768 kb/s
Format ……….: Enhanced AC-3 with Joint Object Coding
Commercial name….: Dolby Digital Plus with Dolby Atmos
Lang…………: Malayalam

 

Telegram  Download Guide  Donate

Original title നായാട്ട്
IMDb Rating 8.2 300 votes
TMDb Rating 8 2 votes

Similar titles

Love (2020)
Police Story (1985)
The Shepherdess and the Seven Songs (2020)
The Outsiders (1983)
The Secret Life of Walter Mitty (2013)
The Don (2006)
Aadu 2
House of Sand and Fog (2003)
Sinkhole (2021)
Vikramadithyan(2014)
Yesterday’s Past (2020)
Iruvattam Manavatti (2005)
CinemaKottaga