Netrikann (2021)

Netrikann (2021)

Aug. 13, 2021IndiaN/A
Your rating: 0
0 0 votes

Synopsis

A blind woman who gives testimony in a hit-and-run case, and is then forced to confront the killer on her own.

Netrikann (2021) Tamil 1080p DSNP WEB-DL HEVC 10bit DDP 5.1 PoOlLa (2 GB)

Format : Matroska
Format version : Version 4
File size : 2.01 GiB
Duration : 2 h 25 min
Overall bit rate : 1 972 kb/s
Movie name : Netrikann (2021) 1080p DSNP WEB-DL HEVC 10bit DDP 5.1 PoOlLa
Encoded date : UTC 2021-08-13 10:09:59
Writing application : mkvmerge v56.1.0 (‘My Friend’) 64-bit
Writing library : libebml v1.4.2 + libmatroska v1.6.4

Video
ID : 1
Format : HEVC
Format/Info : High Efficiency Video Coding
Format profile : Main [email protected]@Main
Codec ID : V_MPEGH/ISO/HEVC
Duration : 2 h 25 min
Bit rate : 1 778 kb/s
Width : 1 920 pixels
Height : 816 pixels
Display aspect ratio : 2.35:1
Frame rate mode : Constant
Frame rate : 24.000 FPS
Color space : YUV
Chroma subsampling : 4:2:0
Bit depth : 10 bits
Bits/(Pixel*Frame) : 0.047
Stream size : 1.81 GiB (90%)
Default : Yes
Forced : No
Color range : Limited
Color primaries : BT.709
Transfer characteristics : BT.709
Matrix coefficients : BT.709

Audio
ID : 2
Format : E-AC-3
Format/Info : Enhanced AC-3
Commercial name : Dolby Digital Plus
Codec ID : A_EAC3
Duration : 2 h 25 min
Bit rate mode : Constant
Bit rate : 192 kb/s
Channel(s) : 6 channels
Channel layout : L R C LFE Ls Rs
Sampling rate : 48.0 kHz
Frame rate : 31.250 FPS (1536 SPF)
Bit depth : 32 bits
Compression mode : Lossy
Stream size : 200 MiB (10%)
Service kind : Complete Main
Default : Yes
Forced : No

Text
ID : 3
Format : UTF-8
Codec ID : S_TEXT/UTF8
Codec ID/Info : UTF-8 Plain Text
Duration : 2 h 25 min
Bit rate : 54 b/s
Count of elements : 1811
Stream size : 57.8 KiB (0%)
Language : English
Default : Yes
Forced : No

Netrikann (2021) Malayalam 1080p DSNP WEB-DL HEVC 10bit DDP 5.1 PoOlLa (2 GB)

Format : Matroska
Format version : Version 4
File size : 2.01 GiB
Duration : 2 h 25 min
Overall bit rate : 1 972 kb/s
Movie name : Netrikann (2021) 1080p DSNP WEB-DL HEVC 10bit DDP 5.1 PoOlLa
Encoded date : UTC 2021-08-13 10:09:59
Writing application : mkvmerge v56.1.0 (‘My Friend’) 64-bit
Writing library : libebml v1.4.2 + libmatroska v1.6.4

Video
ID : 1
Format : HEVC
Format/Info : High Efficiency Video Coding
Format profile : Main [email protected]@Main
Codec ID : V_MPEGH/ISO/HEVC
Duration : 2 h 25 min
Bit rate : 1 778 kb/s
Width : 1 920 pixels
Height : 816 pixels
Display aspect ratio : 2.35:1
Frame rate mode : Constant
Frame rate : 24.000 FPS
Color space : YUV
Chroma subsampling : 4:2:0
Bit depth : 10 bits
Bits/(Pixel*Frame) : 0.047
Stream size : 1.81 GiB (90%)
Default : Yes
Forced : No
Color range : Limited
Color primaries : BT.709
Transfer characteristics : BT.709
Matrix coefficients : BT.709

Audio
ID : 2
Format : E-AC-3
Format/Info : Enhanced AC-3
Commercial name : Dolby Digital Plus
Codec ID : A_EAC3
Duration : 2 h 25 min
Bit rate mode : Constant
Bit rate : 192 kb/s
Channel(s) : 6 channels
Channel layout : L R C LFE Ls Rs
Sampling rate : 48.0 kHz
Frame rate : 31.250 FPS (1536 SPF)
Bit depth : 32 bits
Compression mode : Lossy
Stream size : 200 MiB (10%)
Service kind : Complete Main
Default : Yes
Forced : No

Text
ID : 3
Format : UTF-8
Codec ID : S_TEXT/UTF8
Codec ID/Info : UTF-8 Plain Text
Duration : 2 h 25 min
Bit rate : 54 b/s
Count of elements : 1811
Stream size : 57.8 KiB (0%)
Language : English
Default : Yes
Forced : No

Netrikann (2021) Tamil 720p DSNP WEB-DL HEVC 10bit Opus 2.0 PoOlLa (655 MB)

Format : Matroska
Format version : Version 4
File size : 656 MiB
Duration : 2 h 25 min
Overall bit rate : 630 kb/s
Writing application : Lavf58.76.100
Writing library : Lavf58.76.100
Comment : Encoded By PoOlLa @ cinemakottaga.ml
ErrorDetectionType : Per level 1

Video
ID : 1
Format : HEVC
Format/Info : High Efficiency Video Coding
Format profile : Main [email protected]@Main
Codec ID : V_MPEGH/ISO/HEVC
Duration : 2 h 25 min
Width : 1 280 pixels
Height : 544 pixels
Display aspect ratio : 2.35:1
Frame rate mode : Variable
Original frame rate : 24.000 FPS
Color space : YUV
Chroma subsampling : 4:2:0
Bit depth : 10 bits
Writing library : Lavc58.134.100 libx265
Default : Yes
Forced : No
Color range : Limited
Color primaries : BT.709
Transfer characteristics : BT.709
Matrix coefficients : BT.709

Audio
ID : 2
Format : Opus
Codec ID : A_OPUS
Duration : 2 h 25 min
Channel(s) : 2 channels
Channel layout : L R
Sampling rate : 48.0 kHz
Bit depth : 32 bits
Compression mode : Lossy
Writing library : Lavc58.134.100 libopus
Default : Yes
Forced : No

Text
ID : 3
Format : UTF-8
Codec ID : S_TEXT/UTF8
Codec ID/Info : UTF-8 Plain Text
Duration : 2 h 25 min
Default : Yes
Forced : No

Telegram  Download Guide  Donate

Netrikann (2021)
Original title Netrikann
IMDb Rating N/A N/A votes

Director

Milind Rau
Director

Cast

Similar titles

Memento (2000)
Unhinged (2020)
The Dark Knight (2008)
The Raid 2 (2014)
Stillwater (2021)
The Wager (2020)
Bāhubali: The Beginning
Night in Paradise (2020)
Thank You
Hitman’s Wife’s Bodyguard (2021)
Bridge of Spies (2015)
Ratsasan (2018)
CinemaKottaga