Video Sources 222 Views

  • Watch trailer
Network (1976)

Network (1976)

Television will never be the same.Nov. 01, 1976United States122 Min.R
Your rating: 0
0 0 votes

Synopsis

When veteran anchorman Howard Beale is forced to retire his 25-year post because of his age, he announces to viewers that he will kill himself during his farewell broadcast. Network executives rethink their decision when his fanatical tirade results in a spike in ratings.

Network (1976) 1080p BRrip HEVC 10bit AAC 1.0 PoOlLa (1.7 Gb)

Format : Matroska
Format version : Version 4
File size : 1.74 GiB
Duration : 2 h 1 min
Overall bit rate : 2 054 kb/s
Encoded date : UTC 2021-07-20 05:17:11
Writing application : mkvmerge v56.1.0 (‘My Friend’) 64-bit
Writing library : libebml v1.4.2 + libmatroska v1.6.4

Video
ID : 1
Format : HEVC
Format/Info : High Efficiency Video Coding
Format profile : Main [email protected]@Main
Codec ID : V_MPEGH/ISO/HEVC
Duration : 2 h 1 min
Bit rate : 1 787 kb/s
Width : 1 920 pixels
Height : 1 080 pixels
Display aspect ratio : 16:9
Frame rate mode : Constant
Frame rate : 23.976 (24000/1001) FPS
Color space : YUV
Chroma subsampling : 4:2:0
Bit depth : 10 bits
Bits/(Pixel*Frame) : 0.036
Stream size : 1.51 GiB (87%)
Default : Yes
Forced : No
Color range : Limited

Audio
ID : 2
Format : AAC LC
Format/Info : Advanced Audio Codec Low Complexity
Codec ID : A_AAC-2
Duration : 2 h 1 min
Bit rate : 256 kb/s
Channel(s) : 1 channel
Channel layout : C
Sampling rate : 48.0 kHz
Frame rate : 46.875 FPS (1024 SPF)
Compression mode : Lossy
Stream size : 222 MiB (12%)
Language : English
Default : Yes
Forced : No

Text
ID : 3
Format : VobSub
Muxing mode : zlib
Codec ID : S_VOBSUB
Codec ID/Info : Picture based subtitle format used on DVDs
Duration : 1 h 59 min
Bit rate : 17.3 kb/s
Count of elements : 1867
Stream size : 14.8 MiB (1%)
Language : English
Default : Yes
Forced : No

Network (1976) 720p BRrip HEVC 10bit Opus 1.0 PoOlLa (525 Mb)

Format : Matroska
Format version : Version 4
File size : 525 MiB
Duration : 2 h 1 min
Overall bit rate : 605 kb/s
Encoded date : UTC 2021-07-20 05:05:03
Writing application : mkvmerge v56.1.0 (‘My Friend’) 64-bit
Writing library : libebml v1.4.2 + libmatroska v1.6.4

Video
ID : 1
Format : HEVC
Format/Info : High Efficiency Video Coding
Format profile : Main [email protected]@Main
Codec ID : V_MPEGH/ISO/HEVC
Duration : 2 h 1 min
Bit rate : 538 kb/s
Width : 1 280 pixels
Height : 720 pixels
Display aspect ratio : 16:9
Frame rate mode : Variable
Frame rate : 23.976 (23976/1000) FPS
Original frame rate : 23.976 (24000/1001) FPS
Color space : YUV
Chroma subsampling : 4:2:0
Bit depth : 10 bits
Bits/(Pixel*Frame) : 0.024
Stream size : 467 MiB (89%)
Default : Yes
Forced : No
Color range : Limited
Color primaries : BT.709
Transfer characteristics : BT.709
Matrix coefficients : BT.709

Audio
ID : 2
Format : Opus
Codec ID : A_OPUS
Duration : 2 h 1 min
Bit rate : 53.8 kb/s
Channel(s) : 1 channel
Channel layout : C
Sampling rate : 48.0 kHz
Frame rate : 50.000 FPS (960 SPF)
Bit depth : 24 bits
Compression mode : Lossy
Stream size : 46.7 MiB (9%)
Default : Yes
Forced : No

Text
ID : 3
Format : VobSub
Muxing mode : zlib
Codec ID : S_VOBSUB
Codec ID/Info : Picture based subtitle format used on DVDs
Duration : 2 h 1 min
Bit rate : 17.1 kb/s
Count of elements : 1868
Stream size : 14.8 MiB (3%)
Language : English
Default : Yes
Forced : No

Telegram  Download Guide  Donate

Network (1976)
Network (1976)
Network (1976)
Network (1976)
Network (1976)
Network (1976)
Network (1976)
Network (1976)
Network (1976)
Network (1976)
Original title Network
IMDb Rating 8.1 148,374 votes
TMDb Rating 7.9 1,139 votes

Director

Sidney Lumet
Director

Cast

Faye Dunaway isDiana Christensen
Diana Christensen
William Holden isMax Schumacher
Max Schumacher
Peter Finch isHoward Beale
Howard Beale
Robert Duvall isFrank Hackett
Frank Hackett
Beatrice Straight isLouise Schumacher
Louise Schumacher
Wesley Addy isNelson Chaney
Nelson Chaney
Ned Beatty isArthur Jensen
Arthur Jensen
Arthur Burghardt isGreat Ahmed Kahn
Great Ahmed Kahn
Bill Burrows isTV Director
TV Director
John Carpenter isGeorge Bosch
George Bosch

Similar titles

Saint Maud (2021)
The Prestige (2006)
Gaia (2021)
The Fighter (2010)
Finding Mr. Destiny (2010)
Eka (2018)
Fist of Fury (1972)
The Dig (2021)
Brothers (2009)
Exodus: Gods and Kings (2014)
Once in a Summer (2006)
The Dark Side of the Heart 2
CinemaKottaga