Video Sources 473 Views

  • Watch trailer
No Sudden Move (2021)

No Sudden Move (2021)

Trust is a setup.Jun. 24, 2021United States115 Min.R
Your rating: 0
0 0 votes

Synopsis

A group of criminals are brought together under mysterious circumstances and have to work together to uncover what’s really going on when their simple job goes completely sideways.

No Sudden Move (2021) 1080p WEB-DL HEVC 10bit AC3 5.1 PoOlLa (1.1 GB)

Format : Matroska
Format version : Version 4
File size : 1.10 GiB
Duration : 1 h 55 min
Overall bit rate : 1 374 kb/s
Writing application : Lavf57.83.100
Writing library : Lavf57.83.100
Comment : Ripped By PoOlLa @ cinemakottaga.ml
ErrorDetectionType : Per level 1

Video
ID : 1
Format : HEVC
Format/Info : High Efficiency Video Coding
Format profile : Main [email protected]@Main
Codec ID : V_MPEGH/ISO/HEVC
Duration : 1 h 55 min
Bit rate : 962 kb/s
Width : 1 920 pixels
Height : 888 pixels
Display aspect ratio : 2.2:1
Frame rate mode : Constant
Frame rate : 23.976 (24000/1001) FPS
Color space : YUV
Chroma subsampling : 4:2:0
Bit depth : 10 bits
Bits/(Pixel*Frame) : 0.024
Stream size : 792 MiB (70%)
Writing library : Lavc57.107.100 hevc_nvenc
Default : Yes
Forced : No

Audio
ID : 2
Format : AC-3
Format/Info : Audio Coding 3
Commercial name : Dolby Digital
Codec ID : A_AC3
Duration : 1 h 55 min
Bit rate mode : Constant
Bit rate : 384 kb/s
Channel(s) : 6 channels
Channel layout : L R C LFE Ls Rs
Sampling rate : 48.0 kHz
Frame rate : 31.250 FPS (1536 SPF)
Bit depth : 32 bits
Compression mode : Lossy
Stream size : 316 MiB (28%)
Service kind : Complete Main
Default : No
Forced : No

Text
ID : 3
Format : UTF-8
Codec ID : S_TEXT/UTF8
Codec ID/Info : UTF-8 Plain Text
Duration : 1 h 54 min
Default : No
Forced : No

No Sudden Move (2021) 720p 10bit WEB-DL 2CH HEVC HSB (492MB)

Source …: No.Sudden.Move.2021.1080p.WEB.H264-TIMECUT
Runtime ……: 1h55min
Video ……..: HEVC | 1280 x 592 | 10bit
Audio ……..: 2CH HE-AAC English
Subs …………: English

TG GD

 

Telegram  Download Guide  Donate

Original title No Sudden Move
IMDb Rating 7.7 49 votes
TMDb Rating 7.8 3 votes

Director

Cast

Don Cheadle isCurtis 'Curt' Goynes
Curtis 'Curt' Goynes
Benicio del Toro isRonald Russo
Ronald Russo
David Harbour isMatt Wertz
Matt Wertz
Ray Liotta isFrank Capelli
Frank Capelli
Jon Hamm isDet. Joe Finney
Det. Joe Finney
Brendan Fraser isDoug Jones
Doug Jones
Amy Seimetz isMary Wertz
Mary Wertz
Julia Fox isVanessa Capelli
Vanessa Capelli
Frankie Shaw isPaula Cole
Paula Cole

Similar titles

Clue (1985)
In the Mood for Love (2000)
The Mauritanian (2021)
Arjun Reddy (2017)
My Little Bride (2004)
Kunjikkoonan
L’Eclisse (1962)
Cuckoo (2014)
Varmaa (2020)
Punnagai Mannan (1986)
Come and See (1985)
White Nights (2016)
CinemaKottaga