Onaayum Aattukkuttiyum (2013)

Onaayum Aattukkuttiyum (2013)

Sep. 27, 2013India142 Min.N/A
Your rating: 0
0 0 votes

Synopsis

Chandru, a medical student, saves a dying man by operating him, but soon, the police are knocking on his doors for helping Wolf, a paid killer. And, worse, they want him to kill Wolf.

Onaayum Aattukkuttiyum (2013) 1080p HS WEB-DL HEVC AAC 2.0 PoOlLa (2 GB)

Format : Matroska
Format version : Version 4
File size : 2.00 GiB
Duration : 2 h 17 min
Overall bit rate : 2 085 kb/s
Encoded date : UTC 2021-08-28 02:14:03
Writing application : mkvmerge v59.0.0 (‘Shining Star’) 64-bit
Writing library : libebml v1.4.2 + libmatroska v1.6.4

Video
ID : 1
Format : HEVC
Format/Info : High Efficiency Video Coding
Format profile : [email protected]@High
Codec ID : V_MPEGH/ISO/HEVC
Duration : 2 h 17 min
Bit rate : 2 021 kb/s
Width : 1 920 pixels
Height : 1 014 pixels
Display aspect ratio : 1.893
Frame rate mode : Constant
Frame rate : 25.000 FPS
Color space : YUV
Chroma subsampling : 4:2:0
Bit depth : 8 bits
Bits/(Pixel*Frame) : 0.042
Stream size : 1.94 GiB (97%)
Title : Encoded by PoOlLa | cinemakottaga.ml
Default : Yes
Forced : No
Color range : Limited
Color primaries : BT.709
Transfer characteristics : BT.709
Matrix coefficients : BT.709

Audio
ID : 2
Format : AAC LC
Format/Info : Advanced Audio Codec Low Complexity
Codec ID : A_AAC-2
Duration : 2 h 17 min
Bit rate : 61.4 kb/s
Channel(s) : 2 channels
Channel layout : L R
Sampling rate : 48.0 kHz
Frame rate : 46.875 FPS (1024 SPF)
Compression mode : Lossy
Stream size : 60.2 MiB (3%)
Language : Tamil
Default : Yes
Forced : No

Text
ID : 3
Format : UTF-8
Codec ID : S_TEXT/UTF8
Codec ID/Info : UTF-8 Plain Text
Duration : 2 h 10 min
Bit rate : 33 b/s
Count of elements : 1056
Stream size : 32.2 KiB (0%)
Language : English
Default : Yes
Forced : No

Onaayum Aattukkuttiyum (2013) 720p HS WEB-DL HEVC 10bit AAC 2.0 PoOlLa (750 MB)

Format : Matroska
Format version : Version 4
File size : 748 MiB
Duration : 2 h 17 min
Overall bit rate : 762 kb/s
Encoded date : UTC 2021-08-26 21:58:34
Writing application : mkvmerge v59.0.0 (‘Shining Star’) 64-bit
Writing library : libebml v1.4.2 + libmatroska v1.6.4

Video
ID : 1
Format : HEVC
Format/Info : High Efficiency Video Coding
Format profile : Main [email protected]@Main
Codec ID : V_MPEGH/ISO/HEVC
Duration : 2 h 17 min
Bit rate : 699 kb/s
Width : 1 280 pixels
Height : 676 pixels
Display aspect ratio : 1.893
Frame rate mode : Constant
Frame rate : 25.000 FPS
Color space : YUV
Chroma subsampling : 4:2:0
Bit depth : 10 bits
Bits/(Pixel*Frame) : 0.032
Stream size : 685 MiB (92%)
Title : Encoded by PoOlLa | cinemakottaga.ml
Default : Yes
Forced : No
Color range : Limited
Color primaries : BT.709
Transfer characteristics : BT.709
Matrix coefficients : BT.709

Audio
ID : 2
Format : AAC LC
Format/Info : Advanced Audio Codec Low Complexity
Codec ID : A_AAC-2
Duration : 2 h 17 min
Bit rate : 61.4 kb/s
Channel(s) : 2 channels
Channel layout : L R
Sampling rate : 48.0 kHz
Frame rate : 46.875 FPS (1024 SPF)
Compression mode : Lossy
Stream size : 60.2 MiB (8%)
Language : Tamil
Default : Yes
Forced : No

Text
ID : 3
Format : UTF-8
Codec ID : S_TEXT/UTF8
Codec ID/Info : UTF-8 Plain Text
Duration : 2 h 10 min
Bit rate : 33 b/s
Count of elements : 1056
Stream size : 32.2 KiB (0%)
Language : English
Default : Yes
Forced : No

Telegram  Download Guide  Donate

Onaayum Aattukkuttiyum (2013)
Onaayum Aattukkuttiyum (2013)
Onaayum Aattukkuttiyum (2013)
Original title ஓநாயும் ஆட்டுக்குட்டியும்
IMDb Rating 8.2 2,546 votes
TMDb Rating 7.4 14 votes

Director

Mysskin
Director

Cast

Mysskin isWolf / Edward
Wolf / Edward
Sri isChandru
Chandru
Neelima Rani isChandru's Sister-in-Law
Chandru's Sister-in-Law
Shaji Chen isCBCID Lal
CBCID Lal
Mona Kakade isPriscilla
Priscilla

Similar titles

The Passion of the Christ
Joy House
Ghajini (2005)
The Dark Side of the Heart
Ajeeb Daastaans (2021)
Fear Street: 1666 (2021)
Vaazhl (2021)
Blade Runner 2049
Lansky (2021)
Oru Maravathoor Kanavu(1998)
Siberiade (1979)
Happy Times (2000)
CinemaKottaga