One (2021)

One (2021)

Mar. 26, 2021India151 Min.N/A
Your rating: 0
1 1 vote

Synopsis

Story of Kadakkal Chandran, the Chief Minister of Kerala whose uncompromising attitude towards corruption and his dictatorial actions has gained him a lot of enemies. The events gets more intense when he faces an allegation.

One (2021) 1080p NF WEB-DL 6CH HEVC JrRip (1.4GB)

Source ………:
Runtime ……: 2hr 29min
Video ……….: HEVC | 1920 x 816 | 8bit
Audio ……….: 6CH AAC-LC Malayalam
Subs …………: English

One (2021) 720p NF WEB-DL x264 AAC 2.0 PoOlLa (1.45 GB)

Download One (2021)

Format : MPEG-4
Format profile : Base Media
Codec ID : isom (isom/iso2/avc1/mp41)
File size : 1.45 GiB
Duration : 2 h 29 min
Overall bit rate mode : Variable
Overall bit rate : 1 388 kb/s
Writing application : Lavf58.49.100

Video
ID : 1
Format : AVC
Format/Info : Advanced Video Codec
Format profile : [email protected]
Format settings : CABAC / 4 Ref Frames
Format settings, CABAC : Yes
Format settings, Reference : 4 frames
Codec ID : avc1
Codec ID/Info : Advanced Video Coding
Duration : 2 h 29 min
Bit rate : 1 230 kb/s
Width : 1 280 pixels
Height : 542 pixels
Display aspect ratio : 2.35:1
Original display aspect rat : 2.35:1
Frame rate mode : Constant
Frame rate : 24.000 FPS
Color space : YUV
Chroma subsampling : 4:2:0
Bit depth : 8 bits
Scan type : Progressive
Bits/(Pixel*Frame) : 0.074
Stream size : 1.28 GiB (89%)
Writing library : x264 core 161 r3018 db0d417
Color range : Limited
Color primaries : BT.709
Transfer characteristics : BT.709
Matrix coefficients : BT.709
Codec configuration box : avcC

Audio
ID : 2
Format : AAC LC
Format/Info : Advanced Audio Codec Low Complexity
Codec ID : mp4a-40-2
Duration : 2 h 29 min
Duration_LastFrame : -11 ms
Bit rate mode : Constant
Bit rate : 153 kb/s
Channel(s) : 2 channels
Channel layout : L R
Sampling rate : 48.0 kHz
Frame rate : 46.875 FPS (1024 SPF)
Compression mode : Lossy
Stream size : 163 MiB (11%)
Default : Yes
Alternate group : 1

Text
ID : 3
Format : Timed Text
Muxing mode : sbtl
Codec ID : tx3g
Duration : 2 h 25 min
Bit rate mode : Variable
Bit rate : 79 b/s
Stream size : 83.5 KiB (0%)
Default : Yes
Forced : No
Alternate group : 3

Gdrive  TG  TG

TG  Mi  Direct

One (2021) 720p 10bit NF WEB-DL 2CH HEVC MPEG7 (792MB)

Source ………: 1080p NF WEB-DL
Runtime ……: 2hr 29min
Video ……….: HEVC | 1280 x 544 | 10bit
Audio ……….: 2CH HE-AAC Malayalam
Subs …………: English & Hindi

 

Telegram  Download Guide  Donate

One (2021)
Original title വൺ
IMDb Rating 7.1 900 votes

Director

Cast

Mammootty isKadakkal Chandran
Kadakkal Chandran
Murali Gopy isMarampally Jayanandan
Marampally Jayanandan
Siddique isK C Jayakumar
K C Jayakumar
Joju George isBabychan
Babychan
Balachandra Menon isDr. Sreekar Varma
Dr. Sreekar Varma
Ranjith isVijaya Mohan
Vijaya Mohan

Similar titles

Thoovanathumbikal
Hero (2002)
Iyobinte Pusthakam (2014)
Sagar Alias Jackey (2009)
White Wedding (1989)
Ee.Ma.Yau (2018)
To Live (1994)
Njandukalude Naattil Oridavela
Hitman’s Wife’s Bodyguard (2021)
Vettaiyaadu Vilaiyaadu
Versus (2000)
À Nos Amours (1983)
CinemaKottaga