Video Sources 182 Views

  • Watch trailer
Ponyo (2008)

Ponyo (2008)

Welcome to a world where anything is possible.Jul. 19, 2008Japan100 Min.G
Your rating: 0
0 0 votes

Synopsis

The son of a sailor, 5-year old Sosuke, lives a quiet life on an oceanside cliff with his mother Lisa. One fateful day, he finds a beautiful goldfish trapped in a bottle on the beach and upon rescuing her, names her Ponyo. But she is no ordinary goldfish.

Ponyo (2008) 720p BRrip HEVC 10bit Opus 2.0 PoOlLa (500 Mb)

Format : Matroska
Format version : Version 4
File size : 504 MiB
Duration : 1 h 40 min
Overall bit rate : 699 kb/s
Encoded date : UTC 2019-02-09 00:12:11
Writing application : mkvmerge v29.0.0 (‘Like It Or Not’) 64-bit
Writing library : libebml v1.3.6 + libmatroska v1.4.9
Writing frontend : StaxRip v2.0.0.0

Video
ID : 1
Format : HEVC
Format/Info : High Efficiency Video Coding
Format profile : Main [email protected]@Main
Codec ID : V_MPEGH/ISO/HEVC
Duration : 1 h 40 min
Bit rate : 611 kb/s
Width : 1 280 pixels
Height : 692 pixels
Display aspect ratio : 1.85:1
Frame rate mode : Constant
Frame rate : 24.000 FPS
Color space : YUV
Chroma subsampling : 4:2:0
Bit depth : 10 bits
Bits/(Pixel*Frame) : 0.029
Stream size : 441 MiB (88%)
Writing library : x265 3.0_RC+10-672ce0547e97:[Windows][GCC 6.3.0][64 bit] 10bit
Default : Yes
Forced : No
Color range : Limited
Color primaries : BT.709
Matrix coefficients : BT.709

Audio
ID : 2
Format : Opus
Codec ID : A_OPUS
Duration : 1 h 40 min
Bit rate : 83.9 kb/s
Channel(s) : 2 channels
Channel layout : L R
Sampling rate : 48.0 kHz
Frame rate : 50.000 FPS (960 SPF)
Compression mode : Lossy
Delay relative to video : 61 ms
Stream size : 60.5 MiB (12%)
Language : Japanese
Default : No
Forced : No

Text
ID : 3
Format : ASS
Codec ID : S_TEXT/ASS
Codec ID/Info : Advanced Sub Station Alpha
Duration : 1 h 36 min
Bit rate : 73 b/s
Count of elements : 980
Compression mode : Lossless
Stream size : 51.5 KiB (0%)
Language : English
Default : Yes
Forced : No

Telegram  Download Guide  Donate

Ponyo (2008)
Ponyo (2008)
Ponyo (2008)
Ponyo (2008)
Ponyo (2008)
Ponyo (2008)
Ponyo (2008)
Ponyo (2008)
Ponyo (2008)
Ponyo (2008)
Original title 崖の上のポニョ
IMDb Rating 7.7 130,224 votes
TMDb Rating 7.7 2,842 votes

Director

Cast

Hiroki Doi isSosuke (voice)
Sosuke (voice)
Yuria Nara isPonyo (voice)
Ponyo (voice)
George Tokoro isFujimoto (voice)
Fujimoto (voice)
Tomoko Yamaguchi isLisa (voice)
Lisa (voice)
Yuki Amami isGranmamare (voice)
Granmamare (voice)
Kazushige Nagashima isKoichi (voice)
Koichi (voice)
Akiko Yano isPonyo's Sisters (voice)
Ponyo's Sisters (voice)
Shinichi Hatori isAnchorman (voice)
Anchorman (voice)
Tokie Hidari isKayo (voice)
Kayo (voice)
Rumi Hiiragi isYoung Mother (voice)
Young Mother (voice)

Similar titles

In Ghost House Inn
Aparahnam
Thalayanamanthram
Ramayana: The Legend of Prince Rama (1992)
Sagar Alias Jackey (2009)
Baasha (1995)
Anuraga Karikkin Vellam
The Great Indian Kitchen (2021)
Deiva Thirumagal
Submarino (2010)
Lucky Star
Naran(2005)
CinemaKottaga