Video Sources 186 Views

  • Watch trailer
Primer (2004)

Primer (2004)

What happens if it actually works?Oct. 08, 2004United States77 Min.PG-13
Your rating: 0
7 1 vote

Synopsis

Friends and fledgling entrepreneurs invent a device in their garage which reduces the apparent mass of any object placed inside it, but they discover that it has some highly unexpected capabilities – ones that could enable them to do and to have seemingly anything they want. Taking advantage of this unique opportunity is the first challenge they face. Dealing with the consequences is the next.

Primer (2004) 720p 10bit BluRay 2CH HEVC MPEG7 (367MB)

Source …:Primer.2004.1080p.BluRay.REMUX.AVC.DD5.1-FGT

Format : Matroska
Format version : Version 4
File size : 367 MiB
Duration : 1 h 17 min
Overall bit rate : 664 kb/s
Movie name : MPEG7 | Primer.2004.720p.10bit.BluRay.HEVC-MPEG7 | www.cinemakottaga.ml
Encoded date : UTC 2021-03-15 18:50:30
Writing application : mkvmerge v54.0.0 (‘F Maj Pixie’) 64-bit
Writing library : libebml v1.4.2 + libmatroska v1.6.3
Cover : Yes
Attachments : cover.jpg

Video
ID : 1
Format : HEVC
Format/Info : High Efficiency Video Coding
Format profile : Main [email protected]@Main
Codec ID : V_MPEGH/ISO/HEVC
Duration : 1 h 17 min
Bit rate : 597 kb/s
Width : 1 280 pixels
Height : 720 pixels
Display aspect ratio : 16:9
Frame rate mode : Variable
Frame rate : 23.976 FPS
Color space : YUV
Chroma subsampling : 4:2:0
Bit depth : 10 bits
Bits/(Pixel*Frame) : 0.027
Stream size : 330 MiB (90%)
Title : MPEG7 | www.cinemakottaga.ml
Default : Yes
Forced : No
Color range : Limited
Color primaries : BT.709
Transfer characteristics : BT.709
Matrix coefficients : BT.709

Audio
ID : 2
Format : Opus
Codec ID : A_OPUS
Duration : 1 h 17 min
Bit rate : 63.7 kb/s
Channel(s) : 2 channels
Channel layout : L R
Sampling rate : 48.0 kHz
Frame rate : 50.000 FPS (960 SPF)
Bit depth : 24 bits
Compression mode : Lossy
Stream size : 35.3 MiB (10%)
Title : MPEG7 | www.cinemakottaga.ml
Language : English
Default : Yes
Forced : No

Text
ID : 3
Format : UTF-8
Codec ID : S_TEXT/UTF8
Codec ID/Info : UTF-8 Plain Text
Duration : 1 h 14 min
Bit rate : 97 b/s
Count of elements : 1175
Stream size : 53.4 KiB (0%)
Title : MPEG7 | www.cinemakottaga.ml
Language : English
Default : Yes
Forced : No

 

Primer (2004) 1080p 10bit BluRay 6CH HEVC MPEG7 (1.1GB)

Source …: Primer.2004.1080p.BluRay.REMUX.AVC.DD5.1-FGT

Format : Matroska
Format version : Version 4
File size : 1.12 GiB
Duration : 1 h 17 min
Overall bit rate : 2 072 kb/s
Movie name : MPEG7 | Primer.2004.1080p.10bit.BluRay.2CH.HEVC-MPEG7 – www.cinemakottaga.ml
Encoded date : UTC 2021-03-14 13:32:57
Writing application : mkvmerge v53.0.0 (‘Fool’s Gold’) 64-bit
Writing library : libebml v1.4.1 + libmatroska v1.6.2
Cover : Yes
Attachments : cover.jpg

Video
ID : 1
Format : HEVC
Format/Info : High Efficiency Video Coding
Format profile : Main [email protected]@High
Codec ID : V_MPEGH/ISO/HEVC
Duration : 1 h 17 min
Bit rate : 1 799 kb/s
Width : 1 920 pixels
Height : 1 080 pixels
Display aspect ratio : 16:9
Frame rate mode : Constant
Frame rate : 23.976 (24000/1001) FPS
Color space : YUV
Chroma subsampling : 4:2:0
Bit depth : 10 bits
Bits/(Pixel*Frame) : 0.036
Stream size : 995 MiB (87%)
Title : MPEG7 | cinemakottaga.ml
Default : Yes
Forced : No
Color range : Limited
Color primaries : BT.709
Transfer characteristics : BT.709
Matrix coefficients : BT.709

Audio
ID : 2
Format : AAC LC
Format/Info : Advanced Audio Codec Low Complexity
Codec ID : A_AAC-2
Duration : 1 h 17 min
Bit rate : 256 kb/s
Channel(s) : 6 channels
Channel layout : C L R Ls Rs LFE
Sampling rate : 48.0 kHz
Frame rate : 46.875 FPS (1024 SPF)
Compression mode : Lossy
Delay relative to video : 20 ms
Stream size : 142 MiB (12%)
Title : MPEG7 | cinemakottaga.ml
Language : English
Default : Yes
Forced : No

Text #1
ID : 3
Format : UTF-8
Codec ID : S_TEXT/UTF8
Codec ID/Info : UTF-8 Plain Text
Duration : 1 h 14 min
Bit rate : 97 b/s
Count of elements : 1175
Stream size : 53.4 KiB (0%)
Title : MPEG7 | cinemakottaga.ml
Language : English
Default : Yes
Forced : No

Text #2
ID : 4
Format : PGS
Muxing mode : zlib
Codec ID : S_HDMV/PGS
Codec ID/Info : Picture based subtitle format used on BDs/HD-DVDs
Duration : 1 h 15 min
Bit rate : 54.5 kb/s
Count of elements : 2434
Stream size : 29.3 MiB (3%)
Title : MPEG7 | cinemakottaga.ml
Language : English
Default : No
Forced : No

 

 

Telegram  Download Guide  Donate

Primer (2004)
Primer (2004)
Primer (2004)
Primer (2004)
Primer (2004)
Original title Primer
IMDb Rating 6.9 100,939 votes
TMDb Rating 6.9 1,540 votes

Director

Cast

Jay Butler isMetalshop Worker
Metalshop Worker
John Carruth isMan On Couch #1
Man On Couch #1
Juan Tapia isMan On Couch #2
Man On Couch #2
Samantha Thomson isRachel Granger
Rachel Granger

Similar titles

To Live (1994)
Little Children (2006)
The Stolen Children (1992)
Run Lola Run (1998)
Lapsis (2020)
A Minute’s Silence (2016)
Nibunan (2017)
The Song of Sparrows (2008)
Autograph (2004)
Threads (1984)
Veendum Chila Veettukaryangal
The Lie (2018)
CinemaKottaga