Sarpatta Parambarai (2021)

Sarpatta Parambarai (2021)

Roosamana Aangila Kuththu Sandai.Jul. 22, 2021India173 Min.N/A
Your rating: 0
0 0 votes

Synopsis

The film revolves around a class between two clans in North Chennai and the boxing culture of the 1980s in the locality.

Sarpatta Parambarai (2021) 1080p AMZN WEB-DL HEVC 10bit DDP 5.1 PoOlLa (3.5 GB)

Format : Matroska
Format version : Version 4
File size : 3.54 GiB
Duration : 2 h 53 min
Overall bit rate : 2 916 kb/s
Writing application : Lavf58.76.100
Writing library : Lavf58.76.100
Comment : Ripped By PoOlLa @ cinemakottaga.ml
ErrorDetectionType : Per level 1

Video
ID : 1
Format : HEVC
Format/Info : High Efficiency Video Coding
Format profile : Main [email protected]@Main
Codec ID : V_MPEGH/ISO/HEVC
Duration : 2 h 53 min
Bit rate : 2 218 kb/s
Width : 1 920 pixels
Height : 1 040 pixels
Display aspect ratio : 1.85:1
Frame rate mode : Constant
Frame rate : 24.000 FPS
Color space : YUV
Chroma subsampling : 4:2:0
Bit depth : 10 bits
Bits/(Pixel*Frame) : 0.046
Stream size : 2.70 GiB (76%)
Writing library : Lavc58.134.100 hevc_nvenc
Default : Yes
Forced : No
Color range : Limited
Color primaries : BT.709
Transfer characteristics : BT.709
Matrix coefficients : BT.709

Audio
ID : 2
Format : E-AC-3
Format/Info : Enhanced AC-3
Commercial name : Dolby Digital Plus
Codec ID : A_EAC3
Duration : 2 h 53 min
Bit rate mode : Constant
Bit rate : 640 kb/s
Channel(s) : 6 channels
Channel layout : L R C LFE Ls Rs
Sampling rate : 48.0 kHz
Frame rate : 31.250 FPS (1536 SPF)
Bit depth : 32 bits
Compression mode : Lossy
Stream size : 796 MiB (22%)
Service kind : Complete Main
Default : Yes
Forced : No

Text
ID : 3
Format : UTF-8
Codec ID : S_TEXT/UTF8
Codec ID/Info : UTF-8 Plain Text
Duration : 2 h 50 min
Default : Yes
Forced : No

Sarpatta Parambarai (2021) 1080p AMZN WEB-DL HEVC 10bit AAC 5.1 PoOlLa (2.9 GB)

Format : Matroska
Format version : Version 4
File size : 2.91 GiB
Duration : 2 h 53 min
Overall bit rate : 2 391 kb/s
Writing application : Lavf58.76.100
Writing library : Lavf58.76.100
Comment : Ripped By PoOlLa @ cinemakottaga.ml
ErrorDetectionType : Per level 1

Video
ID : 1
Format : HEVC
Format/Info : High Efficiency Video Coding
Format profile : Main [email protected]@Main
Codec ID : V_MPEGH/ISO/HEVC
Duration : 2 h 53 min
Width : 1 920 pixels
Height : 1 040 pixels
Display aspect ratio : 1.85:1
Frame rate mode : Variable
Original frame rate : 24.000 FPS
Color space : YUV
Chroma subsampling : 4:2:0
Bit depth : 10 bits
Writing library : Lavc58.134.100 hevc_nvenc
Default : Yes
Forced : No
Color range : Limited
Color primaries : BT.709
Transfer characteristics : BT.709
Matrix coefficients : BT.709

Audio
ID : 2
Format : AAC LC
Format/Info : Advanced Audio Codec Low Complexity
Codec ID : A_AAC-2
Duration : 2 h 53 min
Channel(s) : 6 channels
Channel layout : C L R Ls Rs LFE
Sampling rate : 48.0 kHz
Frame rate : 46.875 FPS (1024 SPF)
Compression mode : Lossy
Writing library : Lavc58.134.100 libfdk_aac
Default : Yes
Forced : No

Text
ID : 3
Format : UTF-8
Codec ID : S_TEXT/UTF8
Codec ID/Info : UTF-8 Plain Text
Duration : 2 h 50 min
Default : Yes
Forced : No

Sarpatta Parambarai (2021) 720p AMZN WEB-DL HEVC 10bit AAC 2.0 PoOlLa (1.6 GB)

Format : Matroska
Format version : Version 4
File size : 1.65 GiB
Duration : 2 h 53 min
Overall bit rate : 1 358 kb/s
Writing application : Lavf58.76.100
Writing library : Lavf58.76.100
Comment : Ripped By PoOlLa @ cinemakottaga.ml
ErrorDetectionType : Per level 1

Video
ID : 1
Format : HEVC
Format/Info : High Efficiency Video Coding
Format profile : Main [email protected]@Main
Codec ID : V_MPEGH/ISO/HEVC
Duration : 2 h 53 min
Width : 1 280 pixels
Height : 694 pixels
Display aspect ratio : 1.85:1
Frame rate mode : Variable
Original frame rate : 24.000 FPS
Color space : YUV
Chroma subsampling : 4:2:0
Bit depth : 10 bits
Writing library : Lavc58.134.100 hevc_nvenc
Default : Yes
Forced : No
Color range : Limited
Color primaries : BT.709
Transfer characteristics : BT.709
Matrix coefficients : BT.709

Audio
ID : 2
Format : AAC LC SBR
Format/Info : Advanced Audio Codec Low Complexity with Spectral Band Replication
Commercial name : HE-AAC
Format settings : NBC
Codec ID : A_AAC-5
Duration : 2 h 53 min
Channel(s) : 2 channels
Channel layout : L R
Sampling rate : 48.0 kHz
Frame rate : 23.438 FPS (2048 SPF)
Compression mode : Lossy
Writing library : Lavc58.134.100 libfdk_aac
Default : Yes
Forced : No

Text
ID : 3
Format : UTF-8
Codec ID : S_TEXT/UTF8
Codec ID/Info : UTF-8 Plain Text
Duration : 2 h 50 min
Default : Yes
Forced : No

Sarpatta Parambarai (2021) 720p AMZN WEB-DL HEVC 10bit Opus 2.0-MPEG7 (1.1 GB)

Source …: 1080p WEB-DL

Format : Matroska
Format version : Version 4
File size : 1.12 GiB
Duration : 2 h 53 min
Overall bit rate : 921 kb/s
Movie name : Sarpatta.Parambarai.2021.Tamil.720p.10bit.WEB-DL.x265.2CH.HEVC-MPEG7 | www.cinemakottaga.ml
Encoded date : UTC 2021-07-22 14:10:52
Writing application : mkvmerge v59.0.0 (‘Shining Star’) 64-bit
Writing library : libebml v1.4.2 + libmatroska v1.6.4
Cover : Yes
Attachments : cover.jpg

Video
ID : 1
Format : HEVC
Format/Info : High Efficiency Video Coding
Format profile : Main [email protected]@Main
Codec ID : V_MPEGH/ISO/HEVC
Duration : 2 h 53 min
Bit rate : 849 kb/s
Width : 1 280 pixels
Height : 682 pixels
Display aspect ratio : 1.85:1
Frame rate mode : Variable
Frame rate : 24.000 FPS
Color space : YUV
Chroma subsampling : 4:2:0
Bit depth : 10 bits
Bits/(Pixel*Frame) : 0.041
Stream size : 1.03 GiB (92%)
Title : MPEG7 | www.cinemakottaga.ml
Default : Yes
Forced : No
Color range : Limited
Color primaries : BT.709
Transfer characteristics : BT.709
Matrix coefficients : BT.709

Audio
ID : 2
Format : Opus
Codec ID : A_OPUS
Duration : 2 h 53 min
Bit rate : 69.3 kb/s
Channel(s) : 2 channels
Channel layout : L R
Sampling rate : 48.0 kHz
Frame rate : 50.000 FPS (960 SPF)
Bit depth : 32 bits
Compression mode : Lossy
Stream size : 86.2 MiB (8%)
Title : MPEG7 | www.cinemakottaga.ml
Language : Tamil
Default : Yes
Forced : No

Text
ID : 3
Format : UTF-8
Codec ID : S_TEXT/UTF8
Codec ID/Info : UTF-8 Plain Text
Duration : 2 h 49 min
Bit rate : 73 b/s
Count of elements : 2633
Stream size : 91.1 KiB (0%)
Title : MPEG7 | www.cinemakottaga.ml
Language : English
Default : Yes
Forced : No

 

Sarpatta Parambarai (2021) 1080p AMZN WEB-DL AV1 Opus 2.0-MPEG7 (934MB)

Source …: 1080p WEB-DL

Format : Matroska
Format version : Version 4
File size : 934 MiB
Duration : 2 h 53 min
Overall bit rate : 751 kb/s
Movie name : Sarpatta.Parambarai.2021.Tamil.1080p.WEB-DL.2CH.AV1-MPEG7 | www.cinemakottaga.ml
Encoded date : UTC 2021-07-23 14:33:13
Writing application : mkvmerge v59.0.0 (‘Shining Star’) 64-bit
Writing library : libebml v1.4.2 + libmatroska v1.6.4
Cover : Yes
Attachments : cover.jpg

Video
ID : 1
Format : AV1
Format/Info : AOMedia Video 1
Format profile : [email protected]
Codec ID : V_AV1
Duration : 2 h 53 min
Bit rate : 631 kb/s
Width : 1 920 pixels
Height : 1 024 pixels
Display aspect ratio : 1.882
Frame rate mode : Constant
Frame rate : 24.000 FPS
Color space : YUV
Chroma subsampling : 4:2:0
Bit depth : 8 bits
Bits/(Pixel*Frame) : 0.013
Stream size : 785 MiB (84%)
Title : MPEG7 | www.cinemakottaga.ml
Default : Yes
Forced : No
Color range : Limited
Color primaries : BT.709
Transfer characteristics : BT.709
Matrix coefficients : BT.709

Audio
ID : 2
Format : Opus
Codec ID : A_OPUS
Duration : 2 h 53 min
Bit rate : 117 kb/s
Channel(s) : 2 channels
Channel layout : L R
Sampling rate : 48.0 kHz
Frame rate : 50.000 FPS (960 SPF)
Compression mode : Lossy
Delay relative to video : -7 ms
Stream size : 145 MiB (16%)
Title : MPEG7 | www.cinemakottaga.ml
Writing library : ShanaEncoder
Language : Tamil
Default : Yes
Forced : No

Text
ID : 3
Format : UTF-8
Codec ID : S_TEXT/UTF8
Codec ID/Info : UTF-8 Plain Text
Duration : 2 h 50 min
Bit rate : 72 b/s
Count of elements : 2635
Stream size : 91.2 KiB (0%)
Title : MPEG7 | www.cinemakottaga.ml
Language : English
Default : Yes
Forced : No

 

Sarpatta Parambarai (2021) 720p AMZN WEB-DL AV1 10bit AAC 2.0-MPEG7 (450MB)

Source …:1080p WEB-DL

Format : Matroska
Format version : Version 4
File size : 451 MiB
Duration : 2 h 53 min
Overall bit rate : 362 kb/s
Movie name : Sarpatta.Parambarai.2021.Tamil.720p.10bit.WEB-DL.2CH.AV1-MPEG7 | www.cinemakottaga.ml
Encoded date : UTC 2021-07-23 03:55:08
Writing application : mkvmerge v59.0.0 (‘Shining Star’) 64-bit
Writing library : libebml v1.4.2 + libmatroska v1.6.4
Cover : Yes
Attachments : cover.jpg

Video
ID : 1
Format : AV1
Format/Info : AOMedia Video 1
Format profile : [email protected]
Codec ID : V_AV1
Duration : 2 h 53 min
Bit rate : 300 kb/s
Width : 1 280 pixels
Height : 680 pixels
Display aspect ratio : 1.882
Frame rate mode : Constant
Frame rate : 24.000 FPS
Color space : YUV
Chroma subsampling : 4:2:0
Bit depth : 10 bits
Bits/(Pixel*Frame) : 0.014
Stream size : 374 MiB (83%)
Title : MPEG7 | www.cinemakottaga.ml
Default : Yes
Forced : No
Color range : Limited
Color primaries : BT.709
Transfer characteristics : BT.709
Matrix coefficients : BT.709

Audio
ID : 2
Format : AAC LC SBR
Format/Info : Advanced Audio Codec Low Complexity with Spectral Band Replication
Commercial name : HE-AAC
Format settings : NBC
Codec ID : A_AAC-5
Duration : 2 h 53 min
Bit rate : 60.0 kb/s
Channel(s) : 2 channels
Channel layout : L R
Sampling rate : 48.0 kHz
Frame rate : 23.438 FPS (2048 SPF)
Compression mode : Lossy
Delay relative to video : -7 ms
Stream size : 74.7 MiB (17%)
Title : MPEG7 | www.cinemakottaga.ml
Language : Tamil
Default : Yes
Forced : No

Text
ID : 3
Format : UTF-8
Codec ID : S_TEXT/UTF8
Codec ID/Info : UTF-8 Plain Text
Duration : 2 h 50 min
Bit rate : 72 b/s
Count of elements : 2635
Stream size : 91.2 KiB (0%)
Title : MPEG7 | www.cinemakottaga.ml
Language : English
Default : Yes
Forced : No

 

 

Telegram  Download Guide  Donate

Sarpatta Parambarai (2021)
Sarpatta Parambarai (2021)
Sarpatta Parambarai (2021)
Sarpatta Parambarai (2021)
Original title சார்பட்டா பரம்பரை

Director

Pa. Ranjith
Director

Cast

Arya isKabilan
Kabilan
Kalaiyarasan isVetriselvan
Vetriselvan
Pasupathy Masilamani isRangan Vaathiyar
Rangan Vaathiyar
John Vijay isKevin (Daddy)
Kevin (Daddy)

Similar titles

Jarhead (2005)
Varuthapadatha Valibar Sangam (2013)
Scent of a Woman (1974)
Phantom (2002)
La Flor (2019)
Harishchandrachi Factory (2009)
The Hunt for Red October (1990)
Kilometers and Kilometers (2020)
Enthiran (2010)
Malcolm & Marie (2021)
Ayirathil Oruvan (2010)
Borsalino and Co.
CinemaKottaga