Video Sources 1875 Views

  • Watch trailer
Shang-Chi and the Legend of the Ten Rings (2021)

Shang-Chi and the Legend of the Ten Rings (2021)

You can't outrun your destiny.Sep. 01, 2021United States132 Min.PG-13
Your rating: 0
9.3 4 votes

Synopsis

Shang-Chi must confront the past he thought he left behind when he is drawn into the web of the mysterious Ten Rings organization.

Shang-Chi and the Legend of the Ten Rings (2021) IMAX 2160p DSNP WEB-DL HEVC 10bit HDR DDP 5.1 Atmos PoOlLa (3.8 GB)

Format : Matroska
Format version : Version 4
File size : 3.80 GiB
Duration : 2 h 12 min
Overall bit rate : 4 114 kb/s
Writing application : mkvmerge v59.0.0 (‘Shining Star’) 64-bit
Writing library : libebml v1.4.2 + libmatroska v1.6.4

Video
ID : 1
Format : HEVC
Format/Info : High Efficiency Video Coding
Format profile : Main 10@L5@High
HDR format : SMPTE ST 2086, HDR10 compatible
Codec ID : V_MPEGH/ISO/HEVC
Duration : 2 h 12 min
Bit rate : 3 344 kb/s
Width : 3 840 pixels
Height : 2 024 pixels
Display aspect ratio : 1.897
Frame rate mode : Constant
Frame rate : 23.976 (24000/1001) FPS
Color space : YUV
Chroma subsampling : 4:2:0 (Type 2)
Bit depth : 10 bits
Bits/(Pixel*Frame) : 0.018
Stream size : 3.09 GiB (81%)
Title : Encoded by PoOlLa | cinemakottaga.ml
Color range : Limited
Color primaries : BT.2020
Transfer characteristics : PQ
Matrix coefficients : BT.2020 non-constant
Mastering display color pri : Display P3
Mastering display luminance : min: 0.0000 cd/m2, max: 1000 cd/m2

Audio
ID : 2
Format : E-AC-3 JOC
Format/Info : Enhanced AC-3 with Joint Object Coding
Commercial name : Dolby Digital Plus with Dolby Atmos
Codec ID : A_EAC3
Duration : 2 h 12 min
Bit rate mode : Constant
Bit rate : 768 kb/s
Channel(s) : 6 channels
Channel layout : L R C LFE Ls Rs
Sampling rate : 48.0 kHz
Frame rate : 31.250 FPS (1536 SPF)
Compression mode : Lossy
Stream size : 727 MiB (19%)
Title : English
Language : English
Service kind : Complete Main
Complexity index : 16
Number of dynamic objects : 15
Bed channel count : 1 channel
Bed channel configuration : LFE

Text
ID : 3
Format : UTF-8
Codec ID : S_TEXT/UTF8
Stream size : 50.1 KiB (0%)
Language : English

Shang-Chi and the Legend of the Ten Rings (2021) IMAX 1080p 10bit DSNP WEB-DL HDR x265 HEVC DDP 5.1 Atmos – MPEG7 (2.3GB)

Source …: Shang-Chi.and.the.Legend.of.the.Ten.Rings.202.IMAX.2160p.DSNP.WEB-DL.x265.10bit.HDR.DTS-HD.MA.TrueHD.7.1.Atmos-SWTYBLZ

Format : Matroska
Format version : Version 4
File size : 2.32 GiB
Duration : 2 h 12 min
Overall bit rate : 2 507 kb/s
Movie name : MPEG7 | Shang-Chi.and.the.Legend.of.the.Ten.Rings.202.IMAX.1080p.DSNP.WEB-DL.x265.HEVC.10bit.HDR.DDP.5.1.Atmos-MPEG7 | www.cinemakottaga.ml
Encoded date : UTC 2021-11-13 17:55:22
Writing application : mkvmerge v62.0.0 (‘Apollo’) 64-bit
Writing library : libebml v1.4.2 + libmatroska v1.6.4
Cover : Yes
Attachments : cover.jpg

Video
ID : 1
Format : HEVC
Format/Info : High Efficiency Video Coding
Format profile : Main 10@L4@High
HDR format : SMPTE ST 2086, HDR10 compatible
Codec ID : V_MPEGH/ISO/HEVC
Duration : 2 h 12 min
Bit rate : 1 718 kb/s
Width : 1 920 pixels
Height : 1 080 pixels
Display aspect ratio : 16:9
Frame rate mode : Constant
Frame rate : 23.976 (24000/1001) FPS
Color space : YUV
Chroma subsampling : 4:2:0 (Type 2)
Bit depth : 10 bits
Bits/(Pixel*Frame) : 0.035
Stream size : 1.59 GiB (69%)
Title : MPEG7 | www.cinemakottaga.ml
Default : Yes
Forced : No
Color range : Limited
Color primaries : BT.2020
Transfer characteristics : PQ
Matrix coefficients : BT.2020 non-constant
Mastering display color pri : Display P3
Mastering display luminance : min: 0.0000 cd/m2, max: 1000 cd/m2

Audio
ID : 2
Format : E-AC-3 JOC
Format/Info : Enhanced AC-3 with Joint Object Coding
Commercial name : Dolby Digital Plus with Dolby Atmos
Codec ID : A_EAC3
Duration : 2 h 12 min
Bit rate mode : Constant
Bit rate : 768 kb/s
Channel(s) : 6 channels
Channel layout : L R C LFE Ls Rs
Sampling rate : 48.0 kHz
Frame rate : 31.250 FPS (1536 SPF)
Compression mode : Lossy
Stream size : 727 MiB (31%)
Title : MPEG7 | www.cinemakottaga.ml
Language : English
Service kind : Complete Main
Default : No
Forced : No
Complexity index : 16
Number of dynamic objects : 15
Bed channel count : 1 channel
Bed channel configuration : LFE

Text #1
ID : 3
ID in the original source m : 4768 (0x12A0)
Format : PGS
Muxing mode : zlib
Codec ID : S_HDMV/PGS
Codec ID/Info : Picture based subtitle format used on BDs/HD-DVDs
Duration : 2 h 11 min
Bit rate : 35.8 kb/s
Count of elements : 3706
Stream size : 33.5 MiB (1%)
Title : MPEG7 | www.cinemakottaga.ml
Language : English
Default : No
Forced : No
Original source medium : Blu-ray

Text #2
ID : 4
Format : UTF-8
Codec ID : S_TEXT/UTF8
Codec ID/Info : UTF-8 Plain Text
Duration : 1 h 55 min
Bit rate : 5 b/s
Count of elements : 188
Stream size : 4.98 KiB (0%)
Title : MPEG7 | www.cinemakottaga.ml
Language : English
Default : No
Forced : Yes

Text #3
ID : 5
Format : UTF-8
Codec ID : S_TEXT/UTF8
Codec ID/Info : UTF-8 Plain Text
Duration : 2 h 10 min
Bit rate : 38 b/s
Count of elements : 1313
Stream size : 36.6 KiB (0%)
Title : MPEG7 | www.cinemakottaga.ml
Language : English
Default : Yes
Forced : No

Text #4
ID : 6
Format : UTF-8
Codec ID : S_TEXT/UTF8
Codec ID/Info : UTF-8 Plain Text
Duration : 2 h 11 min
Bit rate : 49 b/s
Count of elements : 1821
Stream size : 47.5 KiB (0%)
Title : MPEG7 | www.cinemakottaga.ml
Language : English
Default : No
Forced : No

 

Shang-Chi and the Legend of the Ten Rings (2021) IMAX 1080p 10bit DSNP WEB-DL HDR x265 HEVC DDP 5.1 – MPEG7 (1.8GB)

Source …: Shang-Chi.and.the.Legend.of.the.Ten.Rings.202.IMAX.2160p.DSNP.WEB-DL.x265.10bit.HDR.DTS-HD.MA.TrueHD.7.1.Atmos-SWTYBLZ

+

Shang-Chi.and.the.Legend.of.the.Ten.Rings.2021.2160p.IMAX.DSNP.WEB-DL.DD+5.1.HDR.HEVC-Telly

Format : Matroska
Format version : Version 4
File size : 1.77 GiB
Duration : 2 h 12 min
Overall bit rate : 1 911 kb/s
Movie name : MPEG7 | Shang-Chi.and.the.Legend.of.the.Ten.Rings.202.IMAX.1080p.DSNP.WEB-DL.x265.HEVC.10bit.HDR.DDP.5.1-MPEG7 | www.cinemakottaga.ml
Encoded date : UTC 2021-11-13 17:57:54
Writing application : mkvmerge v62.0.0 (‘Apollo’) 64-bit
Writing library : libebml v1.4.2 + libmatroska v1.6.4
Cover : Yes
Attachments : cover.jpg

Video
ID : 1
Format : HEVC
Format/Info : High Efficiency Video Coding
Format profile : Main 10@L4@High
HDR format : SMPTE ST 2086, HDR10 compatible
Codec ID : V_MPEGH/ISO/HEVC
Duration : 2 h 12 min
Bit rate : 1 718 kb/s
Width : 1 920 pixels
Height : 1 080 pixels
Display aspect ratio : 16:9
Frame rate mode : Constant
Frame rate : 23.976 (24000/1001) FPS
Color space : YUV
Chroma subsampling : 4:2:0 (Type 2)
Bit depth : 10 bits
Bits/(Pixel*Frame) : 0.035
Stream size : 1.59 GiB (90%)
Title : MPEG7 | www.cinemakottaga.ml
Default : Yes
Forced : No
Color range : Limited
Color primaries : BT.2020
Transfer characteristics : PQ
Matrix coefficients : BT.2020 non-constant
Mastering display color pri : Display P3
Mastering display luminance : min: 0.0000 cd/m2, max: 1000 cd/m2

Audio
ID : 2
Format : E-AC-3
Format/Info : Enhanced AC-3
Commercial name : Dolby Digital Plus
Codec ID : A_EAC3
Duration : 2 h 12 min
Bit rate mode : Constant
Bit rate : 192 kb/s
Channel(s) : 6 channels
Channel layout : L R C LFE Ls Rs
Sampling rate : 48.0 kHz
Frame rate : 31.250 FPS (1536 SPF)
Compression mode : Lossy
Stream size : 182 MiB (10%)
Language : English
Service kind : Complete Main
Default : Yes
Forced : No

Text
ID : 3
Format : UTF-8
Codec ID : S_TEXT/UTF8
Codec ID/Info : UTF-8 Plain Text
Duration : 2 h 11 min
Bit rate : 49 b/s
Count of elements : 1821
Stream size : 47.5 KiB (0%)
Language : English
Default : No
Forced : No

 

Shang-Chi and the Legend of the Ten Rings (2021) IMAX 1080p 10bit DSNP WEB-DL Multi Audio [Hin+Mal+Tam+Tel+Kan] x265 HEVC DDP 5.1 – MPEG7 (3.1GB)

Source …: Shang.Chi.and.the.Legend.of.the.Ten.Rings.2021.IMAX.1080p.DSNP.WEB-DL.DDP5.1.Atmos.H.264-DEADMAN

+

Shang-Chi.and.the.Legend.of.the.Ten.Rings.2021.2160p.IMAX.DSNP.WEB-DL.DD+5.1.HDR.HEVC-Telly

Format : Matroska
Format version : Version 4
File size : 3.11 GiB
Duration : 2 h 12 min
Overall bit rate : 3 369 kb/s
Movie name : MPEG7 | Shang.Chi.and.the.Legend.of.the.Ten.Rings.2021.IMAX.1080p.10bit.DSNP.WEB-DL.Multi.Audios.Hindi+Malayalam+Tamil+Telugu+Kannada.DDP5.1.HEVC-MPEG7 | www.cinemakottaga.ml
Encoded date : UTC 2021-11-13 05:12:58
Writing application : mkvmerge v62.0.0 (‘Apollo’) 64-bit
Writing library : libebml v1.4.2 + libmatroska v1.6.4
Cover : Yes
Attachments : cover.jpg

Video
ID : 1
Format : HEVC
Format/Info : High Efficiency Video Coding
Format profile : Main 10@L4@High
Codec ID : V_MPEGH/ISO/HEVC
Duration : 2 h 12 min
Bit rate : 2 406 kb/s
Width : 1 920 pixels
Height : 1 080 pixels
Display aspect ratio : 16:9
Frame rate mode : Constant
Frame rate : 23.976 (24000/1001) FPS
Color space : YUV
Chroma subsampling : 4:2:0
Bit depth : 10 bits
Bits/(Pixel*Frame) : 0.048
Stream size : 2.22 GiB (71%)
Title : MPEG7 | www.cinemakottaga.ml
Default : Yes
Forced : No
Color range : Limited

Audio #1
ID : 2
Format : E-AC-3
Format/Info : Enhanced AC-3
Commercial name : Dolby Digital Plus
Codec ID : A_EAC3
Duration : 2 h 12 min
Bit rate mode : Constant
Bit rate : 192 kb/s
Channel(s) : 6 channels
Channel layout : L R C LFE Ls Rs
Sampling rate : 48.0 kHz
Frame rate : 31.250 FPS (1536 SPF)
Compression mode : Lossy
Stream size : 182 MiB (6%)
Title : MPEG7 | www.cinemakottaga.ml
Language : Hindi
Service kind : Complete Main
Default : No
Forced : No

Audio #2
ID : 3
Format : E-AC-3
Format/Info : Enhanced AC-3
Commercial name : Dolby Digital Plus
Codec ID : A_EAC3
Duration : 2 h 12 min
Bit rate mode : Constant
Bit rate : 192 kb/s
Channel(s) : 6 channels
Channel layout : L R C LFE Ls Rs
Sampling rate : 48.0 kHz
Frame rate : 31.250 FPS (1536 SPF)
Compression mode : Lossy
Stream size : 182 MiB (6%)
Title : MPEG7 | www.cinemakottaga.ml
Language : Malayalam
Service kind : Complete Main
Default : No
Forced : No

Audio #3
ID : 4
Format : E-AC-3
Format/Info : Enhanced AC-3
Commercial name : Dolby Digital Plus
Codec ID : A_EAC3
Duration : 2 h 12 min
Bit rate mode : Constant
Bit rate : 192 kb/s
Channel(s) : 6 channels
Channel layout : L R C LFE Ls Rs
Sampling rate : 48.0 kHz
Frame rate : 31.250 FPS (1536 SPF)
Compression mode : Lossy
Stream size : 182 MiB (6%)
Title : MPEG7 | www.cinemakottaga.ml
Language : Telugu
Service kind : Complete Main
Default : Yes
Forced : No

Audio #4
ID : 5
Format : E-AC-3
Format/Info : Enhanced AC-3
Commercial name : Dolby Digital Plus
Codec ID : A_EAC3
Duration : 2 h 12 min
Bit rate mode : Constant
Bit rate : 192 kb/s
Channel(s) : 6 channels
Channel layout : L R C LFE Ls Rs
Sampling rate : 48.0 kHz
Frame rate : 31.250 FPS (1536 SPF)
Compression mode : Lossy
Stream size : 182 MiB (6%)
Title : MPEG7 | www.cinemakottaga.ml
Language : Tamil
Service kind : Complete Main
Default : No
Forced : No

Audio #5
ID : 6
Format : E-AC-3
Format/Info : Enhanced AC-3
Commercial name : Dolby Digital Plus
Codec ID : A_EAC3
Duration : 2 h 12 min
Bit rate mode : Constant
Bit rate : 192 kb/s
Channel(s) : 6 channels
Channel layout : L R C LFE Ls Rs
Sampling rate : 48.0 kHz
Frame rate : 31.250 FPS (1536 SPF)
Compression mode : Lossy
Stream size : 182 MiB (6%)
Title : MPEG7 | www.cinemakottaga.ml
Language : Kannada
Service kind : Complete Main
Default : No
Forced : No

Text #1
ID : 7
Format : UTF-8
Codec ID : S_TEXT/UTF8
Codec ID/Info : UTF-8 Plain Text
Duration : 2 h 11 min
Bit rate : 39 b/s
Count of elements : 1305
Stream size : 37.8 KiB (0%)
Title : MPEG7 | www.cinemakottaga.ml
Language : English
Default : Yes
Forced : No

Text #2
ID : 8
Format : UTF-8
Codec ID : S_TEXT/UTF8
Codec ID/Info : UTF-8 Plain Text
Duration : 2 h 11 min
Bit rate : 49 b/s
Count of elements : 1821
Stream size : 47.5 KiB (0%)
Title : MPEG7 | www.cinemakottaga.ml
Language : English
Default : Yes
Forced : Yes

Text #3
ID : 9
Format : UTF-8
Codec ID : S_TEXT/UTF8
Codec ID/Info : UTF-8 Plain Text
Duration : 2 h 11 min
Bit rate : 68 b/s
Count of elements : 1137
Stream size : 66.3 KiB (0%)
Title : MPEG7 | www.cinemakottaga.ml
Language : Thai
Default : No
Forced : No

Text #4
ID : 10
Format : UTF-8
Codec ID : S_TEXT/UTF8
Codec ID/Info : UTF-8 Plain Text
Duration : 2 h 11 min
Bit rate : 37 b/s
Count of elements : 1124
Stream size : 35.7 KiB (0%)
Title : MPEG7 | www.cinemakottaga.ml
Language : Malay
Default : No
Forced : No

Text #5
ID : 11
Format : UTF-8
Codec ID : S_TEXT/UTF8
Codec ID/Info : UTF-8 Plain Text
Duration : 2 h 11 min
Bit rate : 34 b/s
Count of elements : 1118
Stream size : 33.0 KiB (0%)
Title : MPEG7 | www.cinemakottaga.ml
Language : Indonesian
Default : No
Forced : No

 

Shang-Chi and the Legend of the Ten Rings (2021) IMAX 1080p 10bit DSNP WEB-DL x265 HEVC DDP 5.1 Atmos – MPEG7 (3GB)

Source …: Shang.Chi.and.the.Legend.of.the.Ten.Rings.2021.IMAX.1080p.DSNP.WEB-DL.DDP5.1.Atmos.H.264-DEADMAN

Format : Matroska
Format version : Version 4
File size : 2.94 GiB
Duration : 2 h 12 min
Overall bit rate : 3 177 kb/s
Movie name : MPEG7 | Shang.Chi.and.the.Legend.of.the.Ten.Rings.2021.IMAX.1080p.10bit.DSNP.WEB-DL.DDP5.1.Atmos.HEVC-MPEG7 | www.cinemakottaga.ml
Encoded date : UTC 2021-11-13 05:08:58
Writing application : mkvmerge v62.0.0 (‘Apollo’) 64-bit
Writing library : libebml v1.4.2 + libmatroska v1.6.4
Cover : Yes
Attachments : cover.jpg

Video
ID : 1
Format : HEVC
Format/Info : High Efficiency Video Coding
Format profile : Main 10@L4@High
Codec ID : V_MPEGH/ISO/HEVC
Duration : 2 h 12 min
Bit rate : 2 406 kb/s
Width : 1 920 pixels
Height : 1 080 pixels
Display aspect ratio : 16:9
Frame rate mode : Constant
Frame rate : 23.976 (24000/1001) FPS
Color space : YUV
Chroma subsampling : 4:2:0
Bit depth : 10 bits
Bits/(Pixel*Frame) : 0.048
Stream size : 2.22 GiB (76%)
Title : MPEG7 | www.cinemakottaga.ml
Default : Yes
Forced : No
Color range : Limited

Audio
ID : 2
Format : E-AC-3 JOC
Format/Info : Enhanced AC-3 with Joint Object Coding
Commercial name : Dolby Digital Plus with Dolby Atmos
Codec ID : A_EAC3
Duration : 2 h 12 min
Bit rate mode : Constant
Bit rate : 768 kb/s
Channel(s) : 6 channels
Channel layout : L R C LFE Ls Rs
Sampling rate : 48.0 kHz
Frame rate : 31.250 FPS (1536 SPF)
Compression mode : Lossy
Stream size : 727 MiB (24%)
Title : MPEG7 | www.cinemakottaga.ml
Language : English
Service kind : Complete Main
Default : No
Forced : No
Complexity index : 16
Number of dynamic objects : 15
Bed channel count : 1 channel
Bed channel configuration : LFE

Text #1
ID : 3
Format : UTF-8
Codec ID : S_TEXT/UTF8
Codec ID/Info : UTF-8 Plain Text
Duration : 2 h 11 min
Bit rate : 28 b/s
Count of elements : 1153
Stream size : 27.4 KiB (0%)
Title : MPEG7 | www.cinemakottaga.ml
Language : Chinese
Default : No
Forced : No

Text #2
ID : 4
Format : UTF-8
Codec ID : S_TEXT/UTF8
Codec ID/Info : UTF-8 Plain Text
Duration : 2 h 11 min
Bit rate : 35 b/s
Count of elements : 1135
Stream size : 33.8 KiB (0%)
Title : MPEG7 | www.cinemakottaga.ml
Language : Chinese
Default : No
Forced : No

Text #3
ID : 5
Format : UTF-8
Codec ID : S_TEXT/UTF8
Codec ID/Info : UTF-8 Plain Text
Duration : 2 h 11 min
Bit rate : 31 b/s
Count of elements : 798
Stream size : 30.8 KiB (0%)
Title : MPEG7 | www.cinemakottaga.ml
Language : Danish
Default : No
Forced : No

Text #4
ID : 6
Format : UTF-8
Codec ID : S_TEXT/UTF8
Codec ID/Info : UTF-8 Plain Text
Duration : 2 h 11 min
Bit rate : 33 b/s
Count of elements : 941
Stream size : 32.3 KiB (0%)
Title : MPEG7 | www.cinemakottaga.ml
Language : Dutch
Default : No
Forced : No

Text #5
ID : 7
Format : UTF-8
Codec ID : S_TEXT/UTF8
Codec ID/Info : UTF-8 Plain Text
Duration : 1 h 55 min
Bit rate : 5 b/s
Count of elements : 188
Stream size : 4.98 KiB (0%)
Title : MPEG7 | www.cinemakottaga.ml
Language : English
Default : No
Forced : Yes

Text #6
ID : 8
Format : UTF-8
Codec ID : S_TEXT/UTF8
Codec ID/Info : UTF-8 Plain Text
Duration : 2 h 10 min
Bit rate : 38 b/s
Count of elements : 1313
Stream size : 36.6 KiB (0%)
Title : MPEG7 | www.cinemakottaga.ml
Language : English
Default : No
Forced : No

Text #7
ID : 9
Format : UTF-8
Codec ID : S_TEXT/UTF8
Codec ID/Info : UTF-8 Plain Text
Duration : 2 h 11 min
Bit rate : 49 b/s
Count of elements : 1821
Stream size : 47.5 KiB (0%)
Title : MPEG7 | www.cinemakottaga.ml
Language : English
Default : No
Forced : No

 

Shang-Chi and the Legend of the Ten Rings (2021) 1080p 10bit HDR BluRay x265 6CH HEVC – MPEG7 (1.4GB)

Source …: Shang-Chi.and.the.Legend.of.the.Ten.Rings.2021.UHD.BluRay.2160p.TrueHD.Atmos.7.1.HEVC.REMUX-FraMeSToR

Format : Matroska
Format version : Version 4
File size : 1.40 GiB
Duration : 2 h 12 min
Overall bit rate : 1 511 kb/s
Movie name : MPEG7 | Shang-Chi.and.the.Legend.of.the.Ten.Rings.2021.1080p.10bit.HDR.BluRay.x265.6CH.HEVC-MPEG7 | www.cinemakottaga.ml
Encoded date : UTC 2021-11-11 04:41:00
Writing application : mkvmerge v62.0.0 (‘Apollo’) 64-bit
Writing library : libebml v1.4.2 + libmatroska v1.6.4
Cover : Yes
Attachments : cover.jpg
IMDB : tt9376612
TMDB : movie/566525

Video
ID : 1
Format : HEVC
Format/Info : High Efficiency Video Coding
Format profile : Main 10@L4@High
HDR format : SMPTE ST 2086, HDR10 compatible
Codec ID : V_MPEGH/ISO/HEVC
Duration : 2 h 12 min
Bit rate : 1 292 kb/s
Width : 1 920 pixels
Height : 804 pixels
Display aspect ratio : 2.40:1
Frame rate mode : Constant
Frame rate : 23.976 (24000/1001) FPS
Color space : YUV
Chroma subsampling : 4:2:0 (Type 2)
Bit depth : 10 bits
Bits/(Pixel*Frame) : 0.035
Stream size : 1.19 GiB (86%)
Title : MPEG7 | www.cinemakottaga.ml
Default : Yes
Forced : No
Color range : Limited
Color primaries : BT.2020
Transfer characteristics : PQ
Matrix coefficients : BT.2020 non-constant
Mastering display color pri : Display P3
Mastering display luminance : min: 0.0001 cd/m2, max: 1000 cd/m2

Audio
ID : 2
Format : AAC LC SBR
Format/Info : Advanced Audio Codec Low Complexity with Spectral Band Replication
Commercial name : HE-AAC
Format settings : NBC
Codec ID : A_AAC-5
Duration : 2 h 12 min
Bit rate : 216 kb/s
Channel(s) : 6 channels
Channel layout : C L R Ls Rs LFE
Sampling rate : 48.0 kHz
Frame rate : 23.438 FPS (2048 SPF)
Compression mode : Lossy
Stream size : 204 MiB (14%)
Title : MPEG7 | www.cinemakottaga.ml
Language : English
Default : Yes
Forced : No

Text #1
ID : 3
Format : UTF-8
Codec ID : S_TEXT/UTF8
Codec ID/Info : UTF-8 Plain Text
Duration : 2 h 11 min
Bit rate : 39 b/s
Count of elements : 1305
Stream size : 37.8 KiB (0%)
Title : MPEG7 | www.cinemakottaga.ml
Language : English
Default : Yes
Forced : No

Text #2
ID : 4
Format : PGS
Muxing mode : zlib
Codec ID : S_HDMV/PGS
Codec ID/Info : Picture based subtitle format used on BDs/HD-DVDs
Duration : 1 h 55 min
Bit rate : 3 776 b/s
Count of elements : 376
Stream size : 3.13 MiB (0%)
Title : MPEG7 | www.cinemakottaga.ml
Language : English
Default : Yes
Forced : Yes

 

 

Shang-Chi and the Legend of the Ten Rings (2021) 1080p BRrip HEVC 10bit AAC 7.1 PoOlLa (1.65 GB)

Format : Matroska
Format version : Version 4
File size : 1.68 GiB
Duration : 2 h 12 min
Overall bit rate : 1 813 kb/s
Movie name : Shang-Chi and the Legend of the Ten Rings
Writing application : mkvmerge v59.0.0 (‘Shining Star’) 64-bit
Writing library : libebml v1.4.2 + libmatroska v1.6.4

Video
ID : 1
Format : HEVC
Format/Info : High Efficiency Video Coding
Format profile : Main 10@L4@High
Codec ID : V_MPEGH/ISO/HEVC
Duration : 2 h 12 min
Bit rate : 1 299 kb/s
Width : 1 920 pixels
Height : 804 pixels
Display aspect ratio : 2.40:1
Frame rate mode : Constant
Frame rate : 23.976 (24000/1001) FPS
Color space : YUV
Chroma subsampling : 4:2:0
Bit depth : 10 bits
Bits/(Pixel*Frame) : 0.035
Stream size : 1.20 GiB (72%)
Title : Encoded by PoOlLa | cinemakottaga.ml
Color range : Limited
Color primaries : BT.709
Transfer characteristics : BT.709
Matrix coefficients : BT.709

Audio
ID : 2
Format : AAC LC
Format/Info : Advanced Audio Codec Low Complexity
Codec ID : A_AAC-2
Duration : 2 h 12 min
Bit rate : 512 kb/s
Channel(s) : 8 channels
Channel layout : C L R Ls Rs Lb Rb LFE
Sampling rate : 48.0 kHz
Frame rate : 46.875 FPS (1024 SPF)
Compression mode : Lossy
Stream size : 485 MiB (28%)

Text
ID : 3
Format : UTF-8
Codec ID : S_TEXT/UTF8
Stream size : 50.1 KiB (0%)
Language : English

Shang-Chi and the Legend of the Ten Rings (2021) 1080p BRrip HEVC 10bit AAC 5.1 PoOlLa (1.5 GB)

Format : Matroska
Format version : Version 4
File size : 1.50 GiB
Duration : 2 h 12 min
Overall bit rate : 1 623 kb/s
Writing application : Lavf58.76.100
Writing library : Lavf58.76.100
Comment : Ripped By PoOlLa @ cinemakottaga.ml

Video
ID : 1
Format : HEVC
Format/Info : High Efficiency Video Coding
Format profile : Main 10@L4@High
Codec ID : V_MPEGH/ISO/HEVC
Duration : 2 h 12 min
Width : 1 920 pixels
Height : 804 pixels
Display aspect ratio : 2.40:1
Frame rate mode : Constant
Frame rate : 23.976 (24000/1001) FPS
Color space : YUV
Chroma subsampling : 4:2:0
Bit depth : 10 bits
Color range : Limited
Color primaries : BT.709
Transfer characteristics : BT.709
Matrix coefficients : BT.709

Audio
ID : 2
Format : AAC LC
Format/Info : Advanced Audio Codec Low Complexity
Codec ID : A_AAC-2
Duration : 2 h 12 min
Channel(s) : 6 channels
Channel layout : C L R Ls Rs LFE
Sampling rate : 48.0 kHz
Frame rate : 46.875 FPS (1024 SPF)
Compression mode : Lossy
Writing library : Lavc58.134.100 libfdk_aac

Text
ID : 3
Format : UTF-8
Default : Yes

Shang-Chi and the Legend of the Ten Rings (2021) 720p BRrip HEVC 10bit AAC 5.1 PoOlLa (815 MB)

Format : Matroska
Format version : Version 4
File size : 814 MiB
Duration : 2 h 12 min
Overall bit rate : 860 kb/s
Movie name : Shang-Chi and the Legend of the Ten Rings
Writing application : mkvmerge v59.0.0 (‘Shining Star’) 64-bit
Writing library : libebml v1.4.2 + libmatroska v1.6.4

Video
ID : 1
Format : HEVC
Format/Info : High Efficiency Video Coding
Format profile : Main 10@L4@Main
Codec ID : V_MPEGH/ISO/HEVC
Duration : 2 h 12 min
Bit rate : 649 kb/s
Width : 1 280 pixels
Height : 536 pixels
Display aspect ratio : 2.40:1
Frame rate mode : Constant
Frame rate : 23.976 (24000/1001) FPS
Color space : YUV
Chroma subsampling : 4:2:0
Bit depth : 10 bits
Bits/(Pixel*Frame) : 0.039
Stream size : 615 MiB (75%)
Title : Encoded by PoOlLa | cinemakottaga.ml
Color range : Limited
Color primaries : BT.709
Transfer characteristics : BT.709
Matrix coefficients : BT.709

Audio
ID : 2
Format : AAC LC SBR
Format/Info : Advanced Audio Codec Low Complexity with Spectral Band Replication
Commercial name : HE-AAC
Format settings : Explicit
Codec ID : A_AAC-2
Duration : 2 h 12 min
Bit rate : 209 kb/s
Channel(s) : 6 channels
Channel layout : C L R Ls Rs LFE
Sampling rate : 48.0 kHz
Frame rate : 23.438 FPS (2048 SPF)
Compression mode : Lossy
Delay relative to video : 40 ms
Stream size : 198 MiB (24%)
Language : English

Text
ID : 3
Format : UTF-8
Codec ID : S_TEXT/UTF8
Stream size : 50.1 KiB (0%)
Language : English

Shang-Chi and the Legend of the Ten Rings (2021) 720p BRrip X264 AAC 5.1 PoOlLa (1.2 GB)

Format : Matroska
Format version : Version 4
File size : 1.26 GiB
Duration : 2 h 12 min
Overall bit rate : 1 363 kb/s
Movie name : Shang-Chi and the Legend of the Ten Rings
Writing application : mkvmerge v59.0.0 (‘Shining Star’) 64-bit
Writing library : libebml v1.4.2 + libmatroska v1.6.4

Video
ID : 1
Format : AVC
Format/Info : Advanced Video Codec
Format profile : High@L3.1
Format settings : CABAC / 4 Ref Frames
Format settings, CABAC : Yes
Format settings, Reference : 4 frames
Codec ID : V_MPEG4/ISO/AVC
Duration : 2 h 12 min
Bit rate : 1 153 kb/s
Width : 1 280 pixels
Height : 536 pixels
Display aspect ratio : 2.40:1
Frame rate mode : Constant
Frame rate : 23.976 (24000/1001) FPS
Color space : YUV
Chroma subsampling : 4:2:0
Bit depth : 8 bits
Scan type : Progressive
Bits/(Pixel*Frame) : 0.070
Stream size : 1.07 GiB (85%)
Title : Encoded by PoOlLa | cinemakottaga.ml
Writing library : x264 core 164 r3065 ae03d92
Default : Yes
Forced : No
Color range : Limited
Color primaries : BT.709
Transfer characteristics : BT.709
Matrix coefficients : BT.709

Audio
ID : 2
Format : AAC LC SBR
Format/Info : Advanced Audio Codec Low Complexity with Spectral Band Replication
Commercial name : HE-AAC
Format settings : Explicit
Codec ID : A_AAC-2
Duration : 2 h 12 min
Bit rate : 209 kb/s
Channel(s) : 6 channels
Channel layout : C L R Ls Rs LFE
Sampling rate : 48.0 kHz
Frame rate : 23.438 FPS (2048 SPF)
Compression mode : Lossy
Delay relative to video : 40 ms
Stream size : 198 MiB (15%)
Language : English

Text
ID : 3
Format : UTF-8
Codec ID : S_TEXT/UTF8
Language : English

Telegram  Download Guide  Donate

Shang-Chi and the Legend of the Ten Rings (2021)
Shang-Chi and the Legend of the Ten Rings (2021)
Shang-Chi and the Legend of the Ten Rings (2021)
Shang-Chi and the Legend of the Ten Rings (2021)
Shang-Chi and the Legend of the Ten Rings (2021)
Shang-Chi and the Legend of the Ten Rings (2021)
Shang-Chi and the Legend of the Ten Rings (2021)
Shang-Chi and the Legend of the Ten Rings (2021)
Shang-Chi and the Legend of the Ten Rings (2021)
Original title Shang-Chi and the Legend of the Ten Rings
IMDb Rating 7.9 121,599 votes
TMDb Rating 7.7 1,448 votes

Director

Cast

Simu Liu isShaun / Shang-Chi
Shaun / Shang-Chi
Yuen Wah isMaster Guang Bo
Master Guang Bo
Ben Kingsley isTrevor Slattery
Trevor Slattery
Andy Le isLi Ching-Lin / Death Dealer
Li Ching-Lin / Death Dealer

Similar titles

Army of Thieves (2021)
Bigil (2019)
Police Story (1985)
The Dark Knight Rises (2012)
Mr. & Mrs. Smith (2005)
Vikramarkudu (2006)
Eeswaran (2021)
Finding ‘Ohana (2021)
Hera Pheri
Vishudhan(2013)
Jigarthanda (2014)
O Brother, Where Art Thou? (2000)
CinemaKottaga