Sherni (2021)

Sherni (2021)

Jun. 18, 2021India130 Min.N/A
Your rating: 0
0 0 votes

Synopsis

A jaded forest officer leads a team of trackers and locals intending to capture an unsettled tigress while battling intense obstacles and pressures, both natural and man-made.

Sherni (2021) Hindi 720p 10bit AMZN WEB-DL 2CH HEVC MPEG7 (657MB)

Source …: Sherni.2021.Hindi.1080p.CBR.AMZN.WEB-DL.DDP5.1.x264-_ShiNobi_

Format : Matroska
Format version : Version 4
File size : 657 MiB
Duration : 2 h 10 min
Overall bit rate : 704 kb/s
Movie name : Sherni.2021.720p.10bit.AMZN.WEB-DL.2CH.HEVC-MPEG7 | www.cinemakottaga.ml
Encoded date : UTC 2021-06-18 04:33:17
Writing application : mkvmerge v58.0.0 (‘Supper’s Ready’) 64-bit
Writing library : libebml v1.4.2 + libmatroska v1.6.4
Cover : Yes
Attachments : cover.jpg

Video
ID : 1
Format : HEVC
Format/Info : High Efficiency Video Coding
Format profile : Main [email protected]@Main
Codec ID : V_MPEGH/ISO/HEVC
Duration : 2 h 10 min
Bit rate : 642 kb/s
Width : 1 280 pixels
Height : 534 pixels
Display aspect ratio : 2.40:1
Frame rate mode : Variable
Frame rate : 24.000 FPS
Color space : YUV
Chroma subsampling : 4:2:0
Bit depth : 10 bits
Bits/(Pixel*Frame) : 0.039
Stream size : 600 MiB (91%)
Title : MPEG7 | www.cinemakottaga.ml
Default : Yes
Forced : No
Color range : Limited
Color primaries : BT.709
Transfer characteristics : BT.709
Matrix coefficients : BT.709

Audio
ID : 2
Format : Opus
Codec ID : A_OPUS
Duration : 2 h 10 min
Bit rate : 59.2 kb/s
Channel(s) : 2 channels
Channel layout : L R
Sampling rate : 48.0 kHz
Frame rate : 50.000 FPS (960 SPF)
Bit depth : 32 bits
Compression mode : Lossy
Stream size : 55.3 MiB (8%)
Title : MPEG7 | www.cinemakottaga.ml
Language : Hindi
Default : Yes
Forced : No

Text
ID : 3
Format : UTF-8
Codec ID : S_TEXT/UTF8
Codec ID/Info : UTF-8 Plain Text
Duration : 2 h 3 min
Bit rate : 53 b/s
Count of elements : 1422
Stream size : 48.2 KiB (0%)
Title : MPEG7 | www.cinemakottaga.ml
Language : English
Default : Yes
Forced : No

 

Sherni (2021) Hindi 1080p AMZN WEB-DL 6CH HEVC MPEG7 (1.3GB)

Source …: Sherni.2021.Hindi.1080p.CBR.AMZN.WEB-DL.DDP5.1.x264-_ShiNobi_

Format : Matroska
Format version : Version 4
File size : 1.26 GiB
Duration : 2 h 10 min
Overall bit rate : 1 387 kb/s
Movie name : Sherni.2021.1080p.AMZN.WEB-DL.6CH.HEVC-MPEG7 | www.cinemakottaga.ml
Encoded date : UTC 2021-06-18 04:35:05
Writing application : mkvmerge v58.0.0 (‘Supper’s Ready’) 64-bit
Writing library : libebml v1.4.2 + libmatroska v1.6.4
Cover : Yes
Attachments : cover.jpg

Video
ID : 1
Format : HEVC
Format/Info : High Efficiency Video Coding
Format profile : [email protected]@Main
Codec ID : V_MPEGH/ISO/HEVC
Duration : 2 h 10 min
Bit rate : 1 146 kb/s
Width : 1 920 pixels
Height : 800 pixels
Display aspect ratio : 2.40:1
Frame rate mode : Variable
Frame rate : 24.000 FPS
Color space : YUV
Chroma subsampling : 4:2:0
Bit depth : 8 bits
Bits/(Pixel*Frame) : 0.031
Stream size : 1.04 GiB (83%)
Title : MPEG7 | www.cinemakottaga.ml
Default : Yes
Forced : No
Color range : Limited
Color primaries : BT.709
Transfer characteristics : BT.709
Matrix coefficients : BT.709

Audio
ID : 2
Format : AAC LC
Format/Info : Advanced Audio Codec Low Complexity
Codec ID : A_AAC-2
Duration : 2 h 10 min
Bit rate : 238 kb/s
Channel(s) : 6 channels
Channel layout : L R C Cb Lb Rb
Sampling rate : 48.0 kHz
Frame rate : 46.875 FPS (1024 SPF)
Compression mode : Lossy
Stream size : 223 MiB (17%)
Title : MPEG7 | www.cinemakottaga.ml
Language : Hindi
Default : Yes
Forced : No

Text
ID : 3
Format : UTF-8
Codec ID : S_TEXT/UTF8
Codec ID/Info : UTF-8 Plain Text
Duration : 2 h 3 min
Bit rate : 53 b/s
Count of elements : 1422
Stream size : 48.2 KiB (0%)
Title : MPEG7 | www.cinemakottaga.ml
Language : English
Default : Yes
Forced : No

 

 

Telegram  Download Guide  Donate

Sherni (2021)
Sherni (2021)
Sherni (2021)
Sherni (2021)
Original title शेरनी
IMDb Rating N/A N/A votes

Director

Cast

Vidya Balan isVidya Vincent
Vidya Vincent
Vijay Raaz isHassan Noorani
Hassan Noorani
Neeraj Kabi isAkhil Nangia
Akhil Nangia
Ila Arun isVidya's Mother-in-law
Vidya's Mother-in-law
Sharat Saxena isPintu Bhaiyya
Pintu Bhaiyya
Brijendra Kala isBansilal Bansal
Bansilal Bansal
Ashwini Ladekar isForest guard
Forest guard
Gopal Datt isSaiprasad
Saiprasad
Manoj Bakshi isMinister at Jungle Camp
Minister at Jungle Camp

Similar titles

Where Is My Friend’s House?
13B (Yaavarum nalam)
Vikramadithyan(2014)
The Purple Plain (1954)
Iyobinte Pusthakam (2014)
This Must Be the Place (2011)
Harishchandrachi Factory (2009)
1983 (2014)
The Majestic (2001)
Petta
Hitch-Hiking (1991)
Happy Wedding (2016)
CinemaKottaga