Video Sources 89 Views

  • Watch trailer
Spellbound (1945)

Spellbound (1945)

The maddest love that ever possessed a woman.Nov. 08, 1945United States111 Min.N/A
Your rating: 0
0 0 votes

Synopsis

When Dr. Anthony Edwardes arrives at a Vermont mental hospital to replace the outgoing hospital director, Dr. Constance Peterson, a psychoanalyst, discovers Edwardes is actually an impostor. The man confesses that the real Dr. Edwardes is dead and fears he may have killed him, but cannot recall anything. Dr. Peterson, however is convinced his impostor is innocent of the man’s murder, and joins him on a quest to unravel his amnesia through psychoanalysis.

Spellbound (1945) 1080p BRrip HEVC AAC 2.0 PoOlLa (1.8 GB)

Format : Matroska
Format version : Version 4
File size : 1.88 GiB
Duration : 1 h 52 min
Overall bit rate : 2 399 kb/s
Writing application : Lavf58.76.100
Writing library : Lavf58.76.100

Video
ID : 1
Format : HEVC
Format/Info : High Efficiency Video Coding
Format profile : [email protected]@Main
Codec ID : V_MPEGH/ISO/HEVC
Duration : 1 h 52 min
Bit rate : 223 kb/s
Width : 1 480 pixels
Height : 1 080 pixels
Display aspect ratio : 1.370
Frame rate mode : Constant
Frame rate : 23.976 (24000/1001) FPS
Color space : YUV
Chroma subsampling : 4:2:0
Bit depth : 8 bits
Bits/(Pixel*Frame) : 0.006
Stream size : 178 MiB (9%)
Writing library : Lavc59.0.100 libx265
Color range : Limited
Color primaries : BT.709
Transfer characteristics : BT.709
Matrix coefficients : BT.709

Audio
ID : 2
Format : AAC LC
Format/Info : Advanced Audio Codec Low Complexity
Codec ID : A_AAC-2
Duration : 1 h 52 min
Bit rate : 2 076 kb/s
Channel(s) : 2 channels
Channel layout : L R
Sampling rate : 48.0 kHz
Frame rate : 46.875 FPS (1024 SPF)
Compression mode : Lossy
Stream size : 1.71 GiB (91%)
Writing library : Lavc58.134.100 libfdk_aac
Language : English

Text
ID : 3
Format : PGS
Codec ID : S_HDMV/PGS
Codec ID/Info : Picture based subtitle format used on BDs/HD-DVDs
Duration : 1 h 50 min
Bit rate : 52.9 kb/s
Stream size : 41.1 MiB (2%)
Language : Englishh

Spellbound (1945) 720p BRrip HEVC 10bit Opus 2.0 PoOlLa (540 MB)

Format : Matroska
Format version : Version 4
File size : 538 MiB
Duration : 1 h 58 min
Overall bit rate : 637 kb/s
Writing library : libebml v1.4.2 + libmatroska v1.6.4

Video
ID : 1
Format : HEVC
Format/Info : High Efficiency Video Coding
Format profile : Main [email protected]@Main
Codec ID : V_MPEGH/ISO/HEVC
Duration : 1 h 58 min
Bit rate : 577 kb/s
Width : 986 pixels
Height : 720 pixels
Display aspect ratio : 1.370
Frame rate mode : Variable
Frame rate : 23.976 (23976/1000) FPS
Original frame rate : 23.976 (24000/1001) FPS
Color space : YUV
Chroma subsampling : 4:2:0
Bit depth : 10 bits
Bits/(Pixel*Frame) : 0.034
Stream size : 487 MiB (91%)
Color range : Limited
Color primaries : BT.709
Transfer characteristics : BT.709
Matrix coefficients : BT.709

Audio
ID : 2
Format : Opus
Codec ID : A_OPUS
Duration : 1 h 58 min
Bit rate : 51.3 kb/s
Channel(s) : 2 channels
Channel layout : L R
Sampling rate : 48.0 kHz
Frame rate : 50.000 FPS (960 SPF)
Bit depth : 24 bits
Compression mode : Lossy
Stream size : 43.4 MiB (8%)

Text
ID : 3
Format : VobSub
Muxing mode : zlib
Codec ID : S_VOBSUB
Codec ID/Info : Picture based subtitle format used on DVDs
Duration : 1 h 48 min
Stream size : 8.58 MiB (2%)
Language : English

Telegram  Download Guide  Donate

Spellbound (1945)
Spellbound (1945)
Spellbound (1945)
Spellbound (1945)
Original title Spellbound
IMDb Rating 7.5 46,684 votes
TMDb Rating 7.5 593 votes

Director

Cast

Ingrid Bergman isDr. Constance Petersen
Dr. Constance Petersen
Gregory Peck isJohn Ballantine
John Ballantine
Michael Chekhov isDr. Alexander Brulov
Dr. Alexander Brulov
Leo G. Carroll isDr. Murchison
Dr. Murchison
Rhonda Fleming isMary Carmichael
Mary Carmichael
John Emery isDr. Fleurot
Dr. Fleurot
Norman Lloyd isMr. Garmes
Mr. Garmes
Bill Goodwin isHouse detective
House detective
Steven Geray isDr. Graff
Dr. Graff

Similar titles

Thadam (2019)
2 Fast 2 Furious (2003)
Clouds (2020)
Wake Up Love (1996)
Sunset Promise (2019)
Dogville (2003)
Le Cercle Rouge
Drishyam
Promising Young Woman (2020)
Iyobinte Pusthakam (2014)
Amen
The Truth Beneath (2016)
CinemaKottaga