Video Sources 113 Views

  • Watch trailer
Spiral (2000)

Spiral (2000)

Feb. 11, 2000Japan90 Min.N/A
Your rating: 0
5 1 vote

Synopsis

Inhabitants of a small Japanese town become possessed by spirals, called uzumaki.

Uzumaki (2000) 720p DVDRip HEVC 10bit AAC 2.0 PoOlLa (455 MB)

Format : Matroska
Format version : Version 4
File size : 456 MiB
Duration : 1 h 30 min
Overall bit rate : 702 kb/s
Writing application : mkvmerge v59.0.0 (‘Shining Star’) 64-bit
Writing library : libebml v1.4.2 + libmatroska v1.6.4

Video
ID : 1
Format : HEVC
Format/Info : High Efficiency Video Coding
Format profile : Main 10@L4@Main
Codec ID : V_MPEGH/ISO/HEVC
Duration : 1 h 30 min
Bit rate : 604 kb/s
Width : 1 280 pixels
Height : 700 pixels
Display aspect ratio : 1.85:1
Frame rate mode : Constant
Frame rate : 29.970 (30000/1001) FPS
Color space : YUV
Chroma subsampling : 4:2:0
Bit depth : 10 bits
Bits/(Pixel*Frame) : 0.022
Stream size : 393 MiB (86%)
Title : Encoded by PoOlLa | cinemakottaga.ml
Color range : Limited
Transfer characteristics : BT.709

Audio
ID : 2
Format : AAC LC SBR
Format/Info : Advanced Audio Codec Low Complexity with Spectral Band Replication
Commercial name : HE-AAC
Format settings : Explicit
Codec ID : A_AAC-2
Duration : 1 h 30 min
Bit rate : 96.0 kb/s
Channel(s) : 2 channels
Channel layout : L R
Sampling rate : 48.0 kHz
Frame rate : 23.438 FPS (2048 SPF)
Compression mode : Lossy
Delay relative to video : 23 ms
Stream size : 62.4 MiB (14%)
Language : Japanese

Text
ID : 3
Format : UTF-8
Stream size : 15.1 KiB (0%)
Language : English

Telegram  Download Guide  Donate

Spiral (2000)
Spiral (2000)
Spiral (2000)
Spiral (2000)
Spiral (2000)
Original title γ†γšγΎγ
IMDb Rating 6.2 7,906 votes
TMDb Rating 5.8 153 votes

Director

Higuchinsky
Director

Cast

Eriko Hatsune isKirie Goshima
Kirie Goshima
Fhi Fan isShuichi Saito
Shuichi Saito
Hinako Saeki isKyoko Sekino
Kyoko Sekino
Shin Eun-kyung isChie Marayama
Chie Marayama
Keiko Takahashi isYukie Saito
Yukie Saito
Ren Osugi isToshio Saito
Toshio Saito
Denden isOfficer Futada
Officer Futada
Masami Horiuchi isReporter Ichiro Tamura
Reporter Ichiro Tamura
Taro Suwa isYasuo Goshima
Yasuo Goshima
Toru Tezuka isYokota Ikuo
Yokota Ikuo

Similar titles

13aam Number Veedu (2020)
Don’t Breathe 2 (2021)
Sleep Tight (2011)
Roald Dahl’s The Witches (2020)
Things Heard & Seen (2021)
The Conjuring: The Devil Made Me Do It (2021)
Wrong Turn (2021)
Demonte Colony (2015)
Wonder Woman 1984 (2020)
Rampant (2018)
Ratsasan (2018)
The Unholy (2021)
CinemaKottaga