Video Sources 2937 Views

  • Watch trailer
Tenet (2020)

Tenet (2020)

Time runs out.Aug. 22, 2020United Kingdom150 Min.PG-13
Your rating: 0
5 1 vote

Synopsis

download tenet telegram

download tenet (2020)

Armed with only one word – Tenet – and fighting for the survival of the entire world, the Protagonist journeys through a twilight world of international espionage on a mission that will unfold in something beyond real time.

Tenet (2020) 2160p IMAX BRrip HEVC 10bit HDR DDP 5.1 PoOlLa (3.4 GB)

Format : Matroska
Format version : Version 4
File size : 3.46 GiB
Duration : 2 h 30 min
Overall bit rate : 3 301 kb/s
Writing application : mkvmerge v59.0.0 (‘Shining Star’) 64-bit
Writing library : libebml v1.4.2 + libmatroska v1.6.4

Video
ID : 1
Format : HEVC
Format/Info : High Efficiency Video Coding
Format profile : Main 10@L5@High
HDR format : SMPTE ST 2086, HDR10 compatible
Codec ID : V_MPEGH/ISO/HEVC
Duration : 2 h 30 min
Bit rate : 2 660 kb/s
Width : 3 840 pixels
Height : 2 160 pixels
Display aspect ratio : 16:9
Frame rate mode : Constant
Frame rate : 23.976 (24000/1001) FPS
Color space : YUV
Chroma subsampling : 4:2:0 (Type 2)
Bit depth : 10 bits
Bits/(Pixel*Frame) : 0.013
Stream size : 2.79 GiB (81%)
Title : Encoded by PoOlLa | cinemakottaga.ml
Color range : Limited
Color primaries : BT.2020
Transfer characteristics : PQ
Matrix coefficients : BT.2020 non-constant
Mastering display color pri : Display P3
Mastering display luminance : min: 0.0050 cd/m2, max: 4000 cd/m2
Maximum Content Light Level : 349 cd/m2
Maximum Frame-Average Light : 86 cd/m2

Audio
ID : 2
Format : E-AC-3
Format/Info : Enhanced AC-3
Commercial name : Dolby Digital Plus
Codec ID : A_EAC3
Duration : 2 h 30 min
Bit rate mode : Constant
Bit rate : 640 kb/s
Channel(s) : 6 channels
Channel layout : L R C LFE Ls Rs
Sampling rate : 48.0 kHz
Frame rate : 31.250 FPS (1536 SPF)
Compression mode : Lossy
Stream size : 687 MiB (19%)
Language : English
Service kind : Complete Main

Text
ID : 3
Format : UTF-8
Codec ID : S_TEXT/UTF8
Language : English

Tenet (2020) 1080p IMAX BluRay x265 HEVC10bit HDR DDP 5.1 MPEG7 (5.1 GB)

Source …: Tenet.2020.UHD.BluRay.2160p.DTS-HD.MA.5.1.HEVC.REMUX-FraMeSToR 65GB

Format : Matroska
Format version : Version 4
File size : 5.09 GiB
Duration : 2 h 30 min
Overall bit rate : 4 853 kb/s
Movie name : MPEG7 | Tenet (2020) (IMAX 1080p Bluray x265 HEVC 10bit HDR E-AC3 5.1 – MPEG7 ) – www.cinemakotta.ga
Encoded date : UTC 2020-12-06 07:35:15
Writing application : mkvmerge v51.0.0 (‘I Wish’) 64-bit
Writing library : libebml v1.4.0 + libmatroska v1.6.2
Cover : Yes
Attachments : cover.jpg
IMDB : tt6723592
TMDB : movie/577922

Video
ID : 1
Format : HEVC
Format/Info : High Efficiency Video Coding
Format profile : Main 10@L4@High
HDR format : SMPTE ST 2086, HDR10 compatible
Codec ID : V_MPEGH/ISO/HEVC
Duration : 2 h 30 min
Bit rate : 4 199 kb/s
Width : 1 920 pixels
Height : 1 080 pixels
Display aspect ratio : 16:9
Frame rate mode : Constant
Frame rate : 23.976 (24000/1001) FPS
Color space : YUV
Chroma subsampling : 4:2:0 (Type 2)
Bit depth : 10 bits
Bits/(Pixel*Frame) : 0.084
Stream size : 4.40 GiB (87%)
Title : MPEG7 | www.cinemakotta.ga
Writing library : x265 3.4+12-geff904199:[Windows][GCC 5.4.0][64 bit] 10bit
Default : Yes
Forced : No
Color range : Limited
Color primaries : BT.2020
Transfer characteristics : PQ
Matrix coefficients : BT.2020 non-constant
Mastering display color primaries : Display P3
Mastering display luminance : min: 0.0050 cd/m2, max: 4000 cd/m2
Maximum Content Light Level : 349 cd/m2
Maximum Frame-Average Light Level : 86 cd/m2

Audio
ID : 2
Format : E-AC-3
Format/Info : Enhanced AC-3
Commercial name : Dolby Digital Plus
Codec ID : A_EAC3
Duration : 2 h 30 min
Bit rate mode : Constant
Bit rate : 640 kb/s
Channel(s) : 6 channels
Channel layout : L R C LFE Ls Rs
Sampling rate : 48.0 kHz
Frame rate : 31.250 FPS (1536 SPF)
Compression mode : Lossy
Stream size : 687 MiB (13%)
Title : MPEG7 | www.cinemakotta.ga
Language : English
Service kind : Complete Main
Default : Yes
Forced : No

Text
ID : 3
Format : PGS
Muxing mode : zlib
Codec ID : S_HDMV/PGS
Codec ID/Info : Picture based subtitle format used on BDs/HD-DVDs
Duration : 2 h 26 min
Bit rate : 36.4 kb/s
Count of elements : 4274
Stream size : 38.3 MiB (1%)
Title : MPEG7 | www.cinemakotta.ga
Language : English

 
GD YD

Tenet (2020) 1080p IMAX BRrip HEVC 10bit HDR AAC 5.1 PoOlLa (1.7 GB)

Format : Matroska
Format version : Version 4
File size : 1.75 GiB
Duration : 2 h 30 min
Overall bit rate : 1 664 kb/s
Writing application : mkvmerge v59.0.0 (‘Shining Star’) 64-bit
Writing library : libebml v1.4.2 + libmatroska v1.6.4

Video
ID : 1
Format : HEVC
Format/Info : High Efficiency Video Coding
Format profile : Main 10@L4@High
HDR format : SMPTE ST 2086, HDR10 compatible
Codec ID : V_MPEGH/ISO/HEVC
Duration : 2 h 30 min
Bit rate : 1 333 kb/s
Width : 1 920 pixels
Height : 1 080 pixels
Display aspect ratio : 16:9
Frame rate mode : Constant
Frame rate : 23.976 (24000/1001) FPS
Color space : YUV
Chroma subsampling : 4:2:0 (Type 2)
Bit depth : 10 bits
Bits/(Pixel*Frame) : 0.027
Stream size : 1.40 GiB (80%)
Title : Encoded by PoOlLa | cinemakottaga.ml
Color range : Limited
Color primaries : BT.2020
Transfer characteristics : PQ
Matrix coefficients : BT.2020 non-constant
Mastering display color pri : Display P3
Mastering display luminance : min: 0.0050 cd/m2, max: 4000 cd/m2
Maximum Content Light Level : 349 cd/m2
Maximum Frame-Average Light : 86 cd/m2

Audio
ID : 2
Format : AAC LC
Format/Info : Advanced Audio Codec Low Complexity
Codec ID : A_AAC-2
Duration : 2 h 30 min
Bit rate : 329 kb/s
Channel(s) : 6 channels
Channel layout : C L R Ls Rs LFE
Sampling rate : 48.0 kHz
Frame rate : 46.875 FPS (1024 SPF)
Compression mode : Lossy
Delay relative to video : 20 ms
Stream size : 353 MiB (20%)
Language : English

Text
ID : 3
Format : UTF-8
Codec ID : S_TEXT/UTF8
Codec ID/Info : UTF-8 Plain Text
Title : English-SRT
Language : English

Tenet (2020) 1080p IMAX 10bit BluRay x265 6CH HEVC MPEG7 (1.6GB)

Source …: Tenet.2020.BluRay.1080p.DTS-HD.MA.5.1.AVC.REMUX-FraMeSToR 36GB

Format : Matroska
Format version : Version 4
File size : 1.59 GiB
Duration : 2 h 30 min
Overall bit rate : 1 517 kb/s
Movie name : MPEG7 | Tenet.2020.1080p.10bit.BluRay.6CH.HEVC-MPEG7 – www.cinemakotta.ga
Encoded date : UTC 2020-12-04 09:41:37
Writing application : mkvmerge v51.0.0 (‘I Wish’) 64-bit
Writing library : libebml v1.4.0 + libmatroska v1.6.2
Cover : Yes
Attachments : cover.jpg

Video
ID : 1
Format : HEVC
Format/Info : High Efficiency Video Coding
Format profile : Main 10@L4@High
Codec ID : V_MPEGH/ISO/HEVC
Duration : 2 h 30 min
Bit rate : 1 214 kb/s
Width : 1 920 pixels
Height : 1 080 pixels
Display aspect ratio : 16:9
Frame rate mode : Constant
Frame rate : 23.976 (24000/1001) FPS
Color space : YUV
Chroma subsampling : 4:2:0
Bit depth : 10 bits
Bits/(Pixel*Frame) : 0.024
Stream size : 1.27 GiB (80%)
Title : MPEG7 | www.cinemakotta.ga
Default : Yes
Forced : No
Color range : Limited
Color primaries : BT.709
Transfer characteristics : BT.709
Matrix coefficients : BT.709

Audio
ID : 2
Format : AAC LC
Format/Info : Advanced Audio Codec Low Complexity
Codec ID : A_AAC-2
Duration : 2 h 30 min
Bit rate : 288 kb/s
Channel(s) : 6 channels
Channel layout : C L R Ls Rs LFE
Sampling rate : 48.0 kHz
Frame rate : 46.875 FPS (1024 SPF)
Compression mode : Lossy
Delay relative to video : 20 ms
Stream size : 310 MiB (19%)
Title : MPEG7 | www.cinemakotta.ga
Language : English
Default : Yes
Forced : No

Text
ID : 3
Format : PGS
Muxing mode : zlib
Codec ID : S_HDMV/PGS
Codec ID/Info : Picture based subtitle format used on BDs/HD-DVDs
Duration : 2 h 26 min
Bit rate : 36.4 kb/s
Count of elements : 4274
Stream size : 38.3 MiB (2%)
Title : MPEG7 | www.cinemakotta.ga
Language : English

Tenet (2020) 1080p IMAX BluRay.x265.AC3 5.1 (320 Kbps).Yautja(1.40 GB)

General  Unique ID :  44792684896828067044679389870260928763 (0x21B2C1DF47A4FDE27211E07A8DF6C0FB)  Complete name :  Tenet_2020_IMAX_BluRay_1080p_x265_8bit_AC3_5_1_320_Kbps_Yautja.mkv  Format :  Matroska  Format version :  Version 4  File size :  1.40 GiB  Duration :  2 h 30 min  Overall bit rate :  1 335 kb/s  Movie name :  Tenet.2020.IMAX-BluRay.1080p.x265.8bit.AC3 5.1 (320 Kbps).Yautja  Encoded date :  UTC 2021-08-19 14:52:37  Writing application :  mkvmerge v56.1.0 ('My Friend') 64-bit  Writing library :  libebml v1.4.2 + libmatroska v1.6.4  Video  ID :  1  Format :  HEVC  Format/Info :  High Efficiency Video Coding  Format profile :  Main@L4@Main  Codec ID :  V_MPEGH/ISO/HEVC  Duration :  2 h 30 min  Bit rate :  989 kb/s  Width :  1 920 pixels  Height :  1 080 pixels  Display aspect ratio :  16:9  Frame rate mode :  Constant  Frame rate :  23.976 (24000/1001) FPS  Color space :  YUV  Chroma subsampling :  4:2:0  Bit depth :  8 bits  Bits/(Pixel*Frame) :  0.020  Stream size :  1.04 GiB (74%)  Writing library :  x265 3.5+9-bf91444e0:[Windows][GCC 10.2.0][64 bit] 8bit+10bit+12bit  Encoding settings :  Default :  Yes  Forced :  No  Color range :  Limited    Audio  ID :  2  Format :  AC-3  Format/Info :  Audio Coding 3  Commercial name :  Dolby Digital  Codec ID :  A_AC3  Duration :  2 h 30 min  Bit rate mode :  Constant  Bit rate :  320 kb/s  Channel(s) :  6 channels  Channel layout :  L R C LFE Ls Rs  Sampling rate :  48.0 kHz  Frame rate :  31.250 FPS (1536 SPF)  Compression mode :  Lossy  Stream size :  344 MiB (24%)  Title :  AC3 .1 320 Kbps  Language :  English  Service kind :  Complete Main  Default :  Yes  Forced :  No    Text  ID :  3  Format :  UTF-8  Codec ID :  S_TEXT/UTF8  Codec ID/Info :  UTF-8 Plain Text  Title :  eng  Language :  English  Default :  Yes  Forced :  No

Tenet (2020) 720p IMAX 10bit BluRay (Eng + Hin + Tam) x265 2CH HEVC MPEG7 (1 GB)

Source …: Tenet.2020.BluRay.1080p.DTS-HD.MA.5.1.AVC.REMUX-FraMeSToR 36GB

Format : Matroska
Format version : Version 4
File size : 1 018 MiB
Duration : 2 h 30 min
Overall bit rate : 948 kb/s
Movie name : MPEG7 | Tenet.2020.IMAX.720p.Eng+Hindi+Tamil.10bit.BluRay.HEVC-MPEG7 – www.cinemakotta.ga
Encoded date : UTC 2020-12-04 18:52:59
Writing application : mkvmerge v51.0.0 (‘I Wish’) 64-bit
Writing library : libebml v1.4.0 + libmatroska v1.6.2
Cover : Yes
Attachments : cover.jpg

Video
ID : 1
Format : HEVC
Format/Info : High Efficiency Video Coding
Format profile : Main 10@L4@High
Codec ID : V_MPEGH/ISO/HEVC
Duration : 2 h 30 min
Bit rate : 702 kb/s
Width : 1 280 pixels
Height : 720 pixels
Display aspect ratio : 16:9
Frame rate mode : Constant
Frame rate : 23.976 (24000/1001) FPS
Color space : YUV
Chroma subsampling : 4:2:0
Bit depth : 10 bits
Bits/(Pixel*Frame) : 0.032
Stream size : 754 MiB (74%)
Title : MPEG7 | www.cinemakotta.ga
Default : Yes
Forced : No
Color range : Limited

Audio #1
ID : 2
Format : AAC LC SBR
Format/Info : Advanced Audio Codec Low Complexity with Spectral Band Replication
Commercial name : HE-AAC
Format settings : Explicit
Codec ID : A_AAC-2
Duration : 2 h 30 min
Bit rate : 82.8 kb/s
Channel(s) : 2 channels
Channel layout : L R
Sampling rate : 48.0 kHz
Frame rate : 23.438 FPS (2048 SPF)
Compression mode : Lossy
Stream size : 88.9 MiB (9%)
Title : MPEG7 | cinemakotta.ga
Language : English
Default : Yes
Forced : No

Audio #2
ID : 3
Format : AAC LC SBR
Format/Info : Advanced Audio Codec Low Complexity with Spectral Band Replication
Commercial name : HE-AAC
Format settings : NBC
Codec ID : A_AAC-5
Duration : 2 h 30 min
Bit rate : 80.0 kb/s
Channel(s) : 2 channels
Channel layout : L R
Sampling rate : 48.0 kHz
Frame rate : 23.438 FPS (2048 SPF)
Compression mode : Lossy
Stream size : 85.9 MiB (8%)
Title : MPEG7 | cinemakotta.ga
Language : Hindi
Default : No
Forced : No

Audio #3
ID : 4
Format : AAC LC SBR
Format/Info : Advanced Audio Codec Low Complexity with Spectral Band Replication
Commercial name : HE-AAC
Format settings : NBC
Codec ID : A_AAC-5
Duration : 2 h 30 min
Bit rate : 80.0 kb/s
Channel(s) : 2 channels
Channel layout : L R
Sampling rate : 48.0 kHz
Frame rate : 23.438 FPS (2048 SPF)
Compression mode : Lossy
Stream size : 85.9 MiB (8%)
Title : MPEG7 | cinemakotta.ga
Language : Tamil
Default : No
Forced : No

Text
ID : 5
Format : ASS
Codec ID : S_TEXT/ASS
Codec ID/Info : Advanced Sub Station Alpha
Duration : 2 h 27 min
Bit rate : 89 b/s
Count of elements : 1874
Compression mode : Lossless
Stream size : 96.7 KiB (0%)
Title : MPEG7 | cinemakotta.ga
Language : English

Tenet (2020) 720p IMAX 10bit BluRay x265 2CH HEVC MPEG7 (845MB)

Source …: Tenet.2020.BluRay.1080p.DTS-HD.MA.5.1.AVC.REMUX-FraMeSToR 36GB

Format : Matroska
Format version : Version 4
File size : 846 MiB
Duration : 2 h 30 min
Overall bit rate : 787 kb/s
Movie name : MPEG7 | Tenet.2020.IMAX.720p.10bit.BluRay.HEVC-MPEG7 – www.cinemakotta.ga
Encoded date : UTC 2020-12-04 16:57:02
Writing application : mkvmerge v51.0.0 (‘I Wish’) 64-bit
Writing library : libebml v1.4.0 + libmatroska v1.6.2
Cover : Yes
Attachments : cover.jpg

Video
ID : 1
Format : HEVC
Format/Info : High Efficiency Video Coding
Format profile : Main 10@L4@High
Codec ID : V_MPEGH/ISO/HEVC
Duration : 2 h 30 min
Bit rate : 702 kb/s
Width : 1 280 pixels
Height : 720 pixels
Display aspect ratio : 16:9
Frame rate mode : Constant
Frame rate : 23.976 (24000/1001) FPS
Color space : YUV
Chroma subsampling : 4:2:0
Bit depth : 10 bits
Bits/(Pixel*Frame) : 0.032
Stream size : 754 MiB (89%)
Title : MPEG7 | www.cinemakotta.ga
Default : Yes
Forced : No
Color range : Limited

Audio
ID : 2
Format : AAC LC SBR
Format/Info : Advanced Audio Codec Low Complexity with Spectral Band Replication
Commercial name : HE-AAC
Format settings : Explicit
Codec ID : A_AAC-2
Duration : 2 h 30 min
Bit rate : 82.8 kb/s
Channel(s) : 2 channels
Channel layout : L R
Sampling rate : 48.0 kHz
Frame rate : 23.438 FPS (2048 SPF)
Compression mode : Lossy
Stream size : 88.9 MiB (11%)
Title : MPEG7 | cinemakotta.ga
Language : English
Default : Yes
Forced : No

Text #1
ID : 3
Format : ASS
Codec ID : S_TEXT/ASS
Codec ID/Info : Advanced Sub Station Alpha
Duration : 2 h 27 min
Bit rate : 89 b/s
Count of elements : 1874
Compression mode : Lossless
Stream size : 96.7 KiB (0%)
Title : MPEG7 | cinemakotta.ga
Language : English
Default : No
Forced : No

Text #2
ID : 4
Format : UTF-8
Codec ID : S_TEXT/UTF8
Codec ID/Info : UTF-8 Plain Text
Duration : 2 h 27 min
Bit rate : 59 b/s
Count of elements : 2138
Stream size : 63.9 KiB (0%)
Title : MPEG7 | cinemakotta.ga
Language : English

Tenet (2020) 720p IMAX 10bit BluRay DD 2.0 HEVC-HSB (1GB)

Duration : 2hr 30min

Source :Tenet.2020.BluRay.1080p.DTS-HD.MA.5.1.AVC.REMUX-FraMeSToR (35.74GB)

Video Format : HEVC

Format/Info : High Efficiency Video Coding

Width : 1280 pixels

Height : 720 pixels

Bit depth : 10bit

Audio Format : AC3

Format/Info : Dolby Digital

Channel(s) : 2 channels

Language : English

Text Format: HDMV PGS

Tenet (2020) 720p 10bit BluRay 2CH AV1-HSB (470MB)

Duration : 2hr 30min

Source :Tenet 2020 1080p UHD BluRay DD+5.1 x264-LoRD (21.85GB)

Video Format : AV1

Format/Info : AOMedia Video 1

Width : 1280 pixels

Height : 720 pixels

Bit depth : 10bit

 

Audio Format : Opus

Format/Info : A_Opus

Channel(s) : 2 channels

Language : English

Text Format: UTF-8

Tenet (2020) 720p IMAX BRrip x264 AAC 2.0 PoOlLa (1 GB)

Format : MPEG-4
Format profile : Base Media
Codec ID : isom (isom/iso2/avc1/mp41)
File size : 1.07 GiB
Duration : 2 h 30 min
Overall bit rate : 1 018 kb/s
Writing application : Lavf58.49.100

Video
ID : 1
Format : AVC
Format/Info : Advanced Video Codec
Format profile : High@L3.1
Format settings : CABAC / 4 Ref Frames
Format settings, CABAC : Yes
Format settings, Reference : 4 frames
Codec ID : avc1
Codec ID/Info : Advanced Video Coding
Duration : 2 h 30 min
Bit rate : 899 kb/s
Width : 1 280 pixels
Height : 720 pixels
Display aspect ratio : 16:9
Frame rate mode : Constant
Frame rate : 23.976 (24000/1001) FPS
Color space : YUV
Chroma subsampling : 4:2:0
Bit depth : 8 bits
Scan type : Progressive
Bits/(Pixel*Frame) : 0.041
Stream size : 966 MiB (88%)
Writing library : x264 core 161 r3018 db0d417
Color range : Limited
Color primaries : BT.709
Transfer characteristics : BT.709
Matrix coefficients : BT.709
Menus : 0
Codec configuration box : avcC

Audio
ID : 2
Format : AAC LC
Format/Info : Advanced Audio Codec Low Complexity
Codec ID : mp4a-40-2
Duration : 2 h 30 min
Bit rate mode : Constant
Bit rate : 112 kb/s
Channel(s) : 2 channels
Channel layout : L R
Sampling rate : 48.0 kHz
Frame rate : 46.875 FPS (1024 SPF)
Compression mode : Lossy
Stream size : 121 MiB (11%)
Default : Yes
Alternate group : 1

External audio Opus 7.1 – 800 Kbps (865 MB)

 

Telegram  Download Guide  Donate

Tenet (2020)
Tenet (2020)
Tenet (2020)
Tenet (2020)
Tenet (2020)
Tenet (2020)
Tenet (2020)
Tenet (2020)
Tenet (2020)
Tenet (2020)
Original title Tenet
IMDb Rating 7.5 292,854 votes
TMDb Rating 7.5 2,488 votes

Similar titles

The Thing (1982)
Blow-Up (1966)
Ichi the Killer (2001)
Klute (1971)
Laura (1944)
Mikhael
Driving Licence (2019)
Jason Bourne (2016)
Innale (1989)
RX 100 (2018)
Hera Pheri
Terminator 2: Judgment Day (1991)
CinemaKottaga