Video Sources 185 Views

  • Watch trailer
The Classic (2003)

The Classic (2003)

Chance is a gift for those who try.Jan. 30, 2003South Korea127 Min.N/A
Your rating: 0
0 0 votes

Synopsis

Ji-hae’s friend is having problems expressing her feelings to the boy she loves, so she asks Ji-hae to write e-mails to him in her name. As the boy falls in love with her letters, Ji-hae discovers the story of her mother’s romance which is remarkably similar to her own circumstances.

The Classic (2003) 1080p UHDTVrip HEVC 10bit AC3 5.1 PoOlLa (1.65 GB)

Format : Matroska
Format version : Version 4
File size : 1.68 GiB
Duration : 2 h 12 min
Overall bit rate : 1 810 kb/s
Movie name : The Classic (2003) UHDTVrip PoOlLa | cinemkottaga.ml
Encoded date : UTC 2021-07-19 02:14:54
Writing application : mkvmerge v56.1.0 (‘My Friend’) 64-bit
Writing library : libebml v1.4.2 + libmatroska v1.6.4

Video
ID : 1
Format : HEVC
Format/Info : High Efficiency Video Coding
Format profile : Main [email protected]@Main
Codec ID : V_MPEGH/ISO/HEVC
Duration : 2 h 12 min
Bit rate : 1 362 kb/s
Width : 1 920 pixels
Height : 816 pixels
Display aspect ratio : 2.35:1
Frame rate mode : Constant
Frame rate : 23.976 (24000/1001) FPS
Color space : YUV
Chroma subsampling : 4:2:0
Bit depth : 10 bits
Bits/(Pixel*Frame) : 0.036
Stream size : 1.26 GiB (75%)
Default : Yes
Forced : No
Color range : Limited
Color primaries : BT.709
Transfer characteristics : BT.709
Matrix coefficients : BT.709

Audio
ID : 2
Format : AC-3
Format/Info : Audio Coding 3
Commercial name : Dolby Digital
Codec ID : A_AC3
Duration : 2 h 12 min
Bit rate mode : Constant
Bit rate : 448 kb/s
Channel(s) : 6 channels
Channel layout : L R C LFE Ls Rs
Sampling rate : 48.0 kHz
Frame rate : 31.250 FPS (1536 SPF)
Compression mode : Lossy
Delay relative to video : 27 ms
Stream size : 425 MiB (25%)
Language : Korean
Service kind : Complete Main
Default : Yes
Forced : No

Text
ID : 3
Format : UTF-8
Codec ID : S_TEXT/UTF8
Codec ID/Info : UTF-8 Plain Text
Duration : 2 h 5 min
Bit rate : 24 b/s
Count of elements : 860
Stream size : 22.6 KiB (0%)
Language : English
Default : Yes
Forced : No

The Classic (2003) 720p UHDTVrip HEVC 10bit AAC 2.0 PoOlLa (570 MB)

Format : Matroska
Format version : Version 4
File size : 570 MiB
Duration : 2 h 12 min
Overall bit rate : 601 kb/s
Movie name : The Classic (2003) UHDTVrip PoOlLa | cinemkottaga.ml
Encoded date : UTC 2021-07-18 19:31:04
Writing application : mkvmerge v56.1.0 (‘My Friend’) 64-bit
Writing library : libebml v1.4.2 + libmatroska v1.6.4

Video
ID : 1
Format : HEVC
Format/Info : High Efficiency Video Coding
Format profile : Main [email protected]@Main
Codec ID : V_MPEGH/ISO/HEVC
Duration : 2 h 12 min
Bit rate : 528 kb/s
Width : 1 280 pixels
Height : 544 pixels
Display aspect ratio : 2.35:1
Frame rate mode : Constant
Frame rate : 23.976 (24000/1001) FPS
Color space : YUV
Chroma subsampling : 4:2:0
Bit depth : 10 bits
Bits/(Pixel*Frame) : 0.032
Stream size : 500 MiB (88%)
Default : Yes
Forced : No
Color range : Limited
Color primaries : BT.709
Transfer characteristics : BT.709
Matrix coefficients : BT.709

Audio
ID : 2
Format : AAC LC SBR
Format/Info : Advanced Audio Codec Low Complexity with Spectral Band Replication
Commercial name : HE-AAC
Format settings : Explicit
Codec ID : A_AAC-2
Duration : 2 h 12 min
Bit rate : 72.0 kb/s
Channel(s) : 2 channels
Channel layout : L R
Sampling rate : 48.0 kHz
Frame rate : 23.438 FPS (2048 SPF)
Compression mode : Lossy
Delay relative to video : 7 ms
Stream size : 68.2 MiB (12%)
Language : Korean
Default : No
Forced : No

Text
ID : 3
Format : UTF-8
Codec ID : S_TEXT/UTF8
Codec ID/Info : UTF-8 Plain Text
Duration : 2 h 5 min
Bit rate : 24 b/s
Count of elements : 860
Stream size : 22.6 KiB (0%)
Language : English
Default : Yes
Forced : No

Telegram  Download Guide  Donate

The Classic (2003)
The Classic (2003)
Original title 클래식
IMDb Rating 7.8 8,635 votes
TMDb Rating 7.4 110 votes

Director

Cast

Son Ye-jin isJi-Hye / Joo-Hee
Ji-Hye / Joo-Hee
Jo In-sung isSang-Min
Sang-Min
Lee Ki-woo isTae-Soo
Tae-Soo
Lee Sang-In isSoo-Kyeong
Soo-Kyeong

Similar titles

Scent of a Woman (1974)
The Killing of Two Lovers (2021)
The Postman (1994)
Raya and the Last Dragon (2021)
Hope (2019)
French Exit (2021)
Rurouni Kenshin: The Beginning (2021)
Gomorrah (2008)
The Captain (2017)
Cash Truck (2004)
Sadayam (1992)
Dunkirk (2017)
CinemaKottaga