Video Sources 767 Views

  • Watch trailer
The Dark Knight (2008)

The Dark Knight (2008)

Why So Serious?Jul. 16, 2008United States152 Min.PG-13
Your rating: 0
0 0 votes

Synopsis

Download The Dark Knight (2008)

Download The Dark Knight (2008) Bluray HDR

Batman raises the stakes in his war on crime. With the help of Lt. Jim Gordon and District Attorney Harvey Dent, Batman sets out to dismantle the remaining criminal organizations that plague the streets. The partnership proves to be effective, but they soon find themselves prey to a reign of chaos unleashed by a rising criminal mastermind known to the terrified citizens of Gotham as the Joker.

The Dark Knight (2008) 2160p BRrip HEVC HDR10 DDP 5.1 PoOlLa (5.45 gb)

Download The Dark Knight (2008)  4k Bluray HDR

Format : Matroska
Format version : Version 4
File size : 5.45 GiB
Duration : 2 h 32 min
Overall bit rate : 5 125 kb/s
Movie name : The Dark Knight 4k HDR Encoded By PoOlLa | cinemakotta.ga
Writing application : ShanaEncoder
Writing library : ShanaEncoder
ErrorDetectionType : Per level 1

Video
ID : 1
Format : HEVC
Format/Info : High Efficiency Video Coding
Format profile : Main [email protected]@Main
HDR format : SMPTE ST 2086, HDR10 compatible
Codec ID : V_MPEGH/ISO/HEVC
Duration : 2 h 32 min
Bit rate : 4 383 kb/s
Width : 3 840 pixels
Height : 2 160 pixels
Display aspect ratio : 16:9
Frame rate mode : Constant
Frame rate : 23.976 (24000/1001) FPS
Color space : YUV
Chroma subsampling : 4:2:0 (Type 2)
Bit depth : 10 bits
Bits/(Pixel*Frame) : 0.022
Stream size : 4.66 GiB (86%)
Writing library : x265 3.4+12-geff904199:[Windows][GCC 5.4.0][64 bit] 10bit
Default : Yes
Forced : No
Color range : Limited
Color primaries : BT.2020
Transfer characteristics : PQ
Matrix coefficients : BT.2020 non-constant
Mastering display color pri : Display P3
Mastering display luminance : min: 0.0050 cd/m2, max: 4000 cd/m2
Maximum Content Light Level : 500 cd/m2
Maximum Frame-Average Light : 200 cd/m2

Audio
ID : 2
Format : E-AC-3
Format/Info : Enhanced AC-3
Commercial name : Dolby Digital Plus
Codec ID : A_EAC3
Duration : 2 h 32 min
Bit rate mode : Constant
Bit rate : 640 kb/s
Channel(s) : 6 channels
Channel layout : L R C LFE Ls Rs
Sampling rate : 48.0 kHz
Frame rate : 31.250 FPS (1536 SPF)
Bit depth : 24 bits
Compression mode : Lossy
Stream size : 697 MiB (12%)
Service kind : Complete Main
Default : Yes
Forced : No

The Dark Knight (2008) 1080p UHD BRrip HEVC HDR10 DDP 5.1 PoOlLa (1.95gb)

Download The Dark Knight (2008) 1080p Bluray HDR

Format : Matroska
Format version : Version 4
File size : 1.97 GiB
Duration : 2 h 32 min
Overall bit rate : 1 853 kb/s
Encoded date : UTC 2020-05-09 11:15:40
Writing application : ShanaEncoder
Writing library : ShanaEncoder
ErrorDetectionType : Per level 1

Video
ID : 1
Format : HEVC
Format/Info : High Efficiency Video Coding
Format profile : Main [email protected]@High
HDR format : SMPTE ST 2086, HDR10 compatible
Codec ID : V_MPEGH/ISO/HEVC
Duration : 2 h 32 min
Bit rate : 1 368 kb/s
Width : 1 920 pixels
Height : 1 080 pixels
Display aspect ratio : 16:9
Frame rate mode : Constant
Frame rate : 23.976 (24000/1001) FPS
Color space : YUV
Chroma subsampling : 4:2:0 (Type 2)
Bit depth : 10 bits
Bits/(Pixel*Frame) : 0.028
Stream size : 1.45 GiB (74%)
Writing library : x265 3.1.1+1-04b37fdfd2dc:[Windows][GCC 5.4.0][64 bit] 10bit
Default : Yes
Forced : No
Color range : Limited
Color primaries : BT.2020
Transfer characteristics : PQ
Matrix coefficients : BT.2020 non-constant
Mastering display color pri : Display P3
Mastering display luminance : min: 0.0050 cd/m2, max: 4000 cd/m2
Maximum Content Light Level : 500 cd/m2
Maximum Frame-Average Light : 200 cd/m2

Audio
ID : 2
Format : E-AC-3
Format/Info : Enhanced AC-3
Commercial name : Dolby Digital Plus
Codec ID : A_EAC3
Duration : 2 h 32 min
Bit rate mode : Constant
Bit rate : 448 kb/s
Channel(s) : 6 channels
Channel layout : L R C LFE Ls Rs
Sampling rate : 48.0 kHz
Frame rate : 31.250 FPS (1536 SPF)
Bit depth : 24 bits
Compression mode : Lossy
Stream size : 488 MiB (24%)
Title : The.Dark.Knight.2008.2160p.BluRay.REMUX.HEVC.DTS-HD.MA.5.1-FGT
Language : English
Service kind : Complete Main
Default : Yes
Forced : No

The Dark Knight (2008) 720p 10bit IMAX BluRay 2CH HEVC-HSB (1.04GB)

Duration : 2h32min

Source :The.Dark.Knight.2008.IMAX.BluRay.1080p.TrueHD.5.1.VC-1.REMUX-FraMeSToR

Video Format : HEVC

Format/Info : High Efficiency Video Coding

Width : 1280 pixels

Height : 720 pixels

Bit depth : 10bit

Audio Format : AAC 

Format/Info : Advanced Audio Coding

Channel(s) : 2 channels

Language : English

Text Format: PGS

The Dark Knight (2008) REGRADED IMAX 70mm 720p 10bit BluRay 2CH HEVC HSB (727MB)

Source …….: THE DARK KNIGHT 2008 AVC REMUX MULTIAUDIO DTS-HD MA 5.1 REGRADE IMAX RESTORATION V1.1
Runtime ……: 2hr 32min
Video ……..: HEVC | 1280 x 720 | 10bit
Audio ……..: 2CH HE-AAC English
Subs …………: English

The Dark Knight (2008) REGRADED IMAX 70mm 1080p 10bit BluRay 6CH HEVC HSB (1.42GB)

Source …….: THE DARK KNIGHT 2008 AVC REMUX MULTIAUDIO DTS-HD MA 5.1 REGRADE IMAX RESTORATION V1.1
Runtime ……: 2hr 32min
Video ……..: HEVC | 1920 x 1080 | 10bit
Audio ……..: 6CH HE-AAC English
Subs …………: English




Telegram  Download Guide  Donate

The Dark Knight (2008)
The Dark Knight (2008)
The Dark Knight (2008)
The Dark Knight (2008)
The Dark Knight (2008)
The Dark Knight (2008)
The Dark Knight (2008)
The Dark Knight (2008)
The Dark Knight (2008)
The Dark Knight (2008)
Original title The Dark Knight
IMDb Rating 9 2,310,393 votes
TMDb Rating 8.5 23,904 votes

Director

Cast

Christian Bale isBruce Wayne / Batman
Bruce Wayne / Batman
Michael Caine isAlfred Pennyworth
Alfred Pennyworth
Gary Oldman isCommissioner James Gordon
Commissioner James Gordon
Aaron Eckhart isHarvey Dent / Two-Face
Harvey Dent / Two-Face
Maggie Gyllenhaal isRachel Dawes
Rachel Dawes
Morgan Freeman isLucius Fox
Lucius Fox
Nestor Carbonell isMayor Anthony Garcia
Mayor Anthony Garcia
Ron Dean isMichael Wuertz
Michael Wuertz

Similar titles

Sun Children (2020)
Khaali Peeli
Varuthapadatha Valibar Sangam (2013)
The Song of Sparrows (2008)
Kaante (2002)
1492: Conquest of Paradise (1992)
Boys (2003)
Frances Ha (2013)
Kudumbakodathi
Promising Young Woman (2020)
Thupparivaalan (2017)
Njandukalude Naattil Oridavela
CinemaKottaga