Video Sources 510 Views

  • Watch trailer
The Dark Knight Rises (2012)

The Dark Knight Rises (2012)

The Legend EndsJul. 16, 2012United Kingdom165 Min.PG-13
Your rating: 0
0 0 votes

Synopsis

Download The Dark Knight Rises (2012)

Download The Dark Knight Rises (2012) Bluray HDR

Following the death of District Attorney Harvey Dent, Batman assumes responsibility for Dent’s crimes to protect the late attorney’s reputation and is subsequently hunted by the Gotham City Police Department. Eight years later, Batman encounters the mysterious Selina Kyle and the villainous Bane, a new terrorist leader who overwhelms Gotham’s finest. The Dark Knight resurfaces to protect a city that has branded him an enemy.

The Dark Knight Rises (2012) 2160p BRrip HEVC HDR10 DDP 5.1 PoOlLa (5.2gb)

Download The Dark Knight Rises (2012) 4k Bluray HDR

Format : Matroska
Format version : Version 4
File size : 5.21 GiB
Duration : 2 h 44 min
Overall bit rate : 4 536 kb/s
Encoded date : UTC 2020-05-10 10:05:52
Writing application : ShanaEncoder
Writing library : ShanaEncoder
ErrorDetectionType : Per level 1

Video
ID : 1
Format : HEVC
Format/Info : High Efficiency Video Coding
Format profile : Main [email protected]@Main
HDR format : SMPTE ST 2086, HDR10 compatible
Codec ID : V_MPEGH/ISO/HEVC
Duration : 2 h 44 min
Bit rate : 3 806 kb/s
Width : 3 840 pixels
Height : 2 160 pixels
Display aspect ratio : 16:9
Frame rate mode : Constant
Frame rate : 23.976 (24000/1001) FPS
Color space : YUV
Chroma subsampling : 4:2:0 (Type 2)
Bit depth : 10 bits
Bits/(Pixel*Frame) : 0.019
Stream size : 4.37 GiB (84%)
Writing library : x265 3.1.1+1-04b37fdfd2dc:[Windows][GCC 5.4.0][64 bit] 10bit
Default : Yes
Forced : No
Color range : Limited
Color primaries : BT.2020
Transfer characteristics : PQ
Matrix coefficients : BT.2020 non-constant
Mastering display color pri : Display P3
Mastering display luminance : min: 0.0050 cd/m2, max: 4000 cd/m2
Maximum Content Light Level : 500 cd/m2
Maximum Frame-Average Light : 200 cd/m2

Audio
ID : 2
Format : E-AC-3
Format/Info : Enhanced AC-3
Commercial name : Dolby Digital Plus
Codec ID : A_EAC3
Duration : 2 h 44 min
Bit rate mode : Constant
Bit rate : 640 kb/s
Channel(s) : 6 channels
Channel layout : L R C LFE Ls Rs
Sampling rate : 48.0 kHz
Frame rate : 31.250 FPS (1536 SPF)
Bit depth : 24 bits
Compression mode : Lossy
Stream size : 753 MiB (14%)
Language : English
Service kind : Complete Main
Default : Yes
Forced : No

The Dark Knight Rises (2012) 1080p UHD BRrip HEVC HDR10 DDP 5.1 PoOlLa (1.97gb)

Download The Dark Knight Rises (2012)  1080p Bluray HDR

Format : Matroska
Format version : Version 4
File size : 1.98 GiB
Duration : 2 h 44 min
Overall bit rate : 1 721 kb/s
Encoded date : UTC 2020-05-10 04:01:41
Writing application : ShanaEncoder
Writing library : ShanaEncoder
ErrorDetectionType : Per level 1

Video
ID : 1
Format : HEVC
Format/Info : High Efficiency Video Coding
Format profile : Main [email protected]@High
HDR format : SMPTE ST 2086, HDR10 compatible
Codec ID : V_MPEGH/ISO/HEVC
Duration : 2 h 44 min
Bit rate : 1 239 kb/s
Width : 1 920 pixels
Height : 1 080 pixels
Display aspect ratio : 16:9
Frame rate mode : Constant
Frame rate : 23.976 (24000/1001) FPS
Color space : YUV
Chroma subsampling : 4:2:0 (Type 2)
Bit depth : 10 bits
Bits/(Pixel*Frame) : 0.025
Stream size : 1.42 GiB (72%)
Writing library : x265 3.1.1+1-04b37fdfd2dc:[Windows][GCC 5.4.0][64 bit] 10bit
Default : Yes
Forced : No
Color range : Limited
Color primaries : BT.2020
Transfer characteristics : PQ
Matrix coefficients : BT.2020 non-constant
Mastering display color pri : Display P3
Mastering display luminance : min: 0.0050 cd/m2, max: 4000 cd/m2
Maximum Content Light Level : 500 cd/m2
Maximum Frame-Average Light : 200 cd/m2

Audio
ID : 2
Format : E-AC-3
Format/Info : Enhanced AC-3
Commercial name : Dolby Digital Plus
Codec ID : A_EAC3
Duration : 2 h 44 min
Bit rate mode : Constant
Bit rate : 448 kb/s
Channel(s) : 6 channels
Channel layout : L R C LFE Ls Rs
Sampling rate : 48.0 kHz
Frame rate : 31.250 FPS (1536 SPF)
Bit depth : 24 bits
Compression mode : Lossy
Stream size : 527 MiB (26%)
Language : English
Service kind : Complete Main
Default : Yes
Forced : No

The Dark Knight Rises (2012) 720p 10bit IMAX BluRay 2CH HEVC-HSB (947MB)

Duration : 2h44min

Source :The.Dark.Knight.Rises.2012.1080p.Blu-ray.Remux.AVC.DTS-HD.MA.5.1.KRaLiMaRKo

Video Format : HEVC

Format/Info : High Efficiency Video Coding

Width : 1280 pixels

Height : 720 pixels

Bit depth : 10bit

 

Audio Format : AAC 

Format/Info : Advanced Audio Coding

Channel(s) : 2 channels

Language : English

Text Format: PGS



Telegram  Download Guide  Donate

The Dark Knight Rises (2012)
The Dark Knight Rises (2012)
The Dark Knight Rises (2012)
The Dark Knight Rises (2012)
The Dark Knight Rises (2012)
The Dark Knight Rises (2012)
The Dark Knight Rises (2012)
The Dark Knight Rises (2012)
The Dark Knight Rises (2012)
The Dark Knight Rises (2012)
Original title The Dark Knight Rises
IMDb Rating 8.4 1,520,311 votes
TMDb Rating 7.7 17,027 votes

Director

Cast

Christian Bale isBruce Wayne / Batman
Bruce Wayne / Batman
Michael Caine isAlfred Pennyworth
Alfred Pennyworth
Gary Oldman isCommissioner James Gordon
Commissioner James Gordon
Anne Hathaway isSelina Kyle / Catwoman
Selina Kyle / Catwoman
Marion Cotillard isMiranda Tate / Talia al Ghul
Miranda Tate / Talia al Ghul
Morgan Freeman isLucius Fox
Lucius Fox
Matthew Modine isPeter Foley
Peter Foley

Similar titles

Vaaranam Aayiram (2008)
Joseph (2018)
Inherent Vice
Degree College (2020)
Let Him Go (2020)
Anniyan(2005)
The Fisher King (1991)
Our Story
Little Forest: Winter/Spring (2015)
Soul (2020)
Persian Lessons (2020)
Eecha (2012)
CinemaKottaga