The Horseman on the Roof (1995)

The Horseman on the Roof (1995)

Sep. 20, 1995France135 Min.R
Your rating: 0
9 1 vote

Synopsis

In a time of war and disease, a young officer gallantly tries to help a young woman find her husband.

The Horseman on the Roof (1995) 1080p Remastered BRrip HEVC 10bit DDP 5.1 PoOlLa (2.5 GB)

Format : Matroska
Format version : Version 4
File size : 2.52 GiB
Duration : 2 h 9 min
Overall bit rate : 2 781 kb/s
Movie name : Le hussard sur le toit 4K Restoration 1995 1080p PoOlLa
Writing application : mkvmerge v59.0.0 (‘Shining Star’) 64-bit
Writing library : libebml v1.4.2 + libmatroska v1.6.4

Video
ID : 1
Format : HEVC
Format/Info : High Efficiency Video Coding
Format profile : Main 10@L4@High
Codec ID : V_MPEGH/ISO/HEVC
Duration : 2 h 9 min
Bit rate : 2 139 kb/s
Width : 1 920 pixels
Height : 816 pixels
Display aspect ratio : 2.35:1
Frame rate mode : Constant
Frame rate : 23.976 (24000/1001) FPS
Color space : YUV
Chroma subsampling : 4:2:0
Bit depth : 10 bits
Bits/(Pixel*Frame) : 0.057
Stream size : 1.94 GiB (77%)
Title : Encoded by PoOlLa | cinemakottaga.ml
Color range : Limited
Color primaries : BT.709
Transfer characteristics : BT.709
Matrix coefficients : BT.709

Audio
ID : 2
Format : E-AC-3
Format/Info : Enhanced AC-3
Commercial name : Dolby Digital Plus
Codec ID : A_EAC3
Duration : 2 h 9 min
Bit rate mode : Constant
Bit rate : 640 kb/s
Channel(s) : 6 channels
Channel layout : L R C LFE Ls Rs
Sampling rate : 48.0 kHz
Frame rate : 31.250 FPS (1536 SPF)
Compression mode : Lossy
Stream size : 594 MiB (23%)
Language : French
Service kind : Complete Main

Text
ID : 3
Format : UTF-8
Codec ID : S_TEXT/UTF8
Language : English

The Horseman on the Roof (1995) 1080p Remastered BRrip HEVC 10bit AAC 5.1 PoOlLa (1.2 GB)

Format : Matroska
Format version : Version 4
File size : 1.28 GiB
Duration : 2 h 9 min
Overall bit rate : 1 411 kb/s
Movie name : Le hussard sur le toit 4K Restoration 1995 1080p PoOlLa
Writing application : mkvmerge v59.0.0 (‘Shining Star’) 64-bit
Writing library : libebml v1.4.2 + libmatroska v1.6.4

Video
ID : 1
Format : HEVC
Format/Info : High Efficiency Video Coding
Format profile : Main 10@L4@High
Codec ID : V_MPEGH/ISO/HEVC
Duration : 2 h 9 min
Bit rate : 1 092 kb/s
Width : 1 920 pixels
Height : 816 pixels
Display aspect ratio : 2.35:1
Frame rate mode : Constant
Frame rate : 23.976 (24000/1001) FPS
Color space : YUV
Chroma subsampling : 4:2:0
Bit depth : 10 bits
Bits/(Pixel*Frame) : 0.029
Stream size : 1 013 MiB (77%)
Title : Encoded by PoOlLa | cinemakottaga.ml
Color range : Limited
Color primaries : BT.709
Transfer characteristics : BT.709
Matrix coefficients : BT.709

Audio
ID : 2
Format : AAC LC
Format/Info : Advanced Audio Codec Low Complexity
Codec ID : A_AAC-2
Duration : 2 h 9 min
Bit rate : 317 kb/s
Channel(s) : 6 channels
Channel layout : C L R Ls Rs LFE
Sampling rate : 48.0 kHz
Frame rate : 46.875 FPS (1024 SPF)
Compression mode : Lossy
Delay relative to video : 20 ms
Stream size : 294 MiB (22%)
Language : French

Text
ID : 3
Format : UTF-8
Codec ID : S_TEXT/UTF8
Language : English

The Horseman on the Roof (1995) 720p Remastered BRrip HEVC 10bit AAC 2.0 PoOlLa (700 MB)

Format : Matroska
Format version : Version 4
File size : 701 MiB
Duration : 2 h 9 min
Overall bit rate : 756 kb/s
Movie name : Le hussard sur le toit 4K Restoration PoOlLa
Writing application : mkvmerge v59.0.0 (‘Shining Star’) 64-bit
Writing library : libebml v1.4.2 + libmatroska v1.6.4

Video
ID : 1
Format : HEVC
Format/Info : High Efficiency Video Coding
Format profile : Main 10@L3.1@Main
Codec ID : V_MPEGH/ISO/HEVC
Duration : 2 h 9 min
Bit rate : 672 kb/s
Width : 1 280 pixels
Height : 544 pixels
Display aspect ratio : 2.35:1
Frame rate mode : Constant
Frame rate : 23.976 (24000/1001) FPS
Color space : YUV
Chroma subsampling : 4:2:0
Bit depth : 10 bits
Bits/(Pixel*Frame) : 0.040
Stream size : 623 MiB (89%)
Title : Encoded by PoOlLa | cinemakottaga.ml
Color range : Limited
Color primaries : BT.709
Transfer characteristics : BT.709
Matrix coefficients : BT.709

Audio
ID : 2
Format : AAC LC SBR
Format/Info : Advanced Audio Codec Low Complexity with Spectral Band Replication
Commercial name : HE-AAC
Format settings : Explicit
Codec ID : A_AAC-2
Duration : 2 h 9 min
Bit rate : 82.4 kb/s
Channel(s) : 2 channels
Channel layout : L R
Sampling rate : 48.0 kHz
Frame rate : 23.438 FPS (2048 SPF)
Compression mode : Lossy
Delay relative to video : 40 ms
Stream size : 76.4 MiB (11%)
Language : French

Text
ID : 3
Format : UTF-8
Codec ID : S_TEXT/UTF8
Language : English

Telegram  Download Guide  Donate

The Horseman on the Roof (1995)
The Horseman on the Roof (1995)
The Horseman on the Roof (1995)
Original title Le Hussard sur le toit
IMDb Rating 7.1 5,937 votes
TMDb Rating 6.4 98 votes

Director

Cast

Juliette Binoche isPauline de Théus
Pauline de Théus
Olivier Martinez isAngelo Pardi
Angelo Pardi
Pierre Arditi isMonsieur Peyrolle
Monsieur Peyrolle
François Cluzet isLe médecin
Le médecin
Gérard Depardieu isLe commissaire de police de Manosque
Le commissaire de police de Manosque
Jean Yanne isLe colporteur
Le colporteur
Isabelle Carré isLa préceptrice
La préceptrice
Christiane Cohendy isMme Peyrolle
Mme Peyrolle
Tony Lemiere isAdrien Peyrolle
Adrien Peyrolle

Similar titles

Finding Mr. Destiny (2010)
The Dark Side of the Heart
Naya Daur (1957)
This Must Be the Place (2011)
Chidambaram
Rurouni Kenshin: The Final (2021)
Housekeeping (1987)
The Daytrippers (1996)
Mrigaya(1989)
Shirin (2008)
Three (2016)
Ghajini (2008) Hindi
CinemaKottaga