Video Sources 368 Views

  • Watch trailer
The Last Duel (2021)

The Last Duel (2021)

Oct. 13, 2021United States152 Min.R
Your rating: 0
7 1 vote

Synopsis

The true story of a woman who defied a nation and made history. King Charles VI declares that Knight Jean de Carrouges settle his dispute with his squire by challenging him to a duel.

The Last Duel (2021) 720p 10bit WEBRip 2CH HEVC HSB (628 MB)

Source …: The.Last.Duel.2021.2160p.WEB-DL.DDP5.1.Atmos.HEVC-CMRG
Runtime ……: 2h 32min
Video ……..: HEVC | 1280 x 536 | 10bit
Audio ……..: 2CH HE-AAC English
Subs …………: English

The Last Duel (2021) 1080p 10bit AMZN WEB-DL x265 HEVC AAC 5.1 – MPEG7 (1.5GB)

Source …: The.Last.Duel.2021.1080p.AMZN.WEB-DL.DDP5.1.H.264-CMRG

Format : Matroska
Format version : Version 4
File size : 1.46 GiB
Duration : 2 h 33 min
Overall bit rate : 1 355 kb/s
Movie name : MPEG7 | The.Last.Duel.2021.1080p.10bit.AMZN.WEB-DL.x265.HEVC.AAC.5.1-MPEG7 | www.cinemakottaga.ml
Encoded date : UTC 2021-11-30 17:10:40
Writing application : mkvmerge v61.0.0 (‘So’) 64-bit
Writing library : libebml v1.4.2 + libmatroska v1.6.4
Cover : Yes
Attachments : cover.jpg

Video
ID : 1
Format : HEVC
Format/Info : High Efficiency Video Coding
Format profile : Main 10@L4@High
Codec ID : V_MPEGH/ISO/HEVC
Duration : 2 h 33 min
Bit rate : 1 136 kb/s
Width : 1 920 pixels
Height : 800 pixels
Display aspect ratio : 2.40:1
Frame rate mode : Variable
Frame rate : 23.976 (24000/1001) FPS
Color space : YUV
Chroma subsampling : 4:2:0
Bit depth : 10 bits
Bits/(Pixel*Frame) : 0.031
Stream size : 1.22 GiB (84%)
Title : MPEG7 | www.cinemakottaga.ml
Default : Yes
Forced : No
Color range : Limited
Color primaries : BT.709
Transfer characteristics : BT.709
Matrix coefficients : BT.709

Audio
ID : 2
Format : AAC LC SBR
Format/Info : Advanced Audio Codec Low Complexity with Spectral Band Replication
Commercial name : HE-AAC
Format settings : Explicit
Codec ID : A_AAC-2
Duration : 2 h 33 min
Bit rate : 216 kb/s
Channel(s) : 6 channels
Channel layout : C L R Ls Rs LFE
Sampling rate : 48.0 kHz
Frame rate : 23.438 FPS (2048 SPF)
Compression mode : Lossy
Stream size : 238 MiB (16%)
Title : MPEG7 | www.cinemakottaga.ml
Language : English
Default : No
Forced : No

Text #1
ID : 3
Format : UTF-8
Codec ID : S_TEXT/UTF8
Codec ID/Info : UTF-8 Plain Text
Duration : 23 s 232 ms
Bit rate : 49 b/s
Count of elements : 6
Stream size : 143 Bytes (0%)
Title : MPEG7 | www.cinemakottaga.ml
Language : English
Default : No
Forced : Yes

Text #2
ID : 4
Format : UTF-8
Codec ID : S_TEXT/UTF8
Codec ID/Info : UTF-8 Plain Text
Duration : 2 h 28 min
Bit rate : 55 b/s
Count of elements : 2165
Stream size : 60.7 KiB (0%)
Title : MPEG7 | www.cinemakottaga.ml
Language : English
Default : No
Forced : No

Text #3
ID : 5
Format : UTF-8
Codec ID : S_TEXT/UTF8
Codec ID/Info : UTF-8 Plain Text
Duration : 2 h 22 min
Bit rate : 48 b/s
Count of elements : 1683
Stream size : 50.7 KiB (0%)
Title : MPEG7 | www.cinemakottaga.ml
Language : English
Default : No
Forced : No

 

 

Telegram  Download Guide  Donate

The Last Duel (2021)
The Last Duel (2021)
The Last Duel (2021)
The Last Duel (2021)
The Last Duel (2021)
The Last Duel (2021)
The Last Duel (2021)
The Last Duel (2021)
The Last Duel (2021)
The Last Duel (2021)
Original title The Last Duel
IMDb Rating 7.7 23,617 votes
TMDb Rating 7.6 442 votes

Director

Ridley Scott
Director

Cast

Matt Damon isJean de Carrouges
Jean de Carrouges
Adam Driver isJacques Le Gris
Jacques Le Gris
Jodie Comer isMarguerite de Carrouges
Marguerite de Carrouges
Ben Affleck isCount Pierre d'Alençon
Count Pierre d'Alençon
Harriet Walter isNicole de Bouchard
Nicole de Bouchard
Nathaniel Parker isSir Robert D'Thibouville
Sir Robert D'Thibouville
Alex Lawther isYoung King Charles VI
Young King Charles VI
Adam Nagaitis isAdam Louvel
Adam Louvel

Similar titles

The Paradine Case (1947)
Mersal (2017)
Farewell, Friend
People Like Us (2012)
Raja Rani (2013)
Scarface
Vinnaithaandi Varuvaayaa (2010)
Police Story (1985)
Devasuram
Mohan Kumar Fans (2021)
Secrets & Lies (1996)
The Girl on the Train (2021)