Video Sources 239 Views

  • Watch trailer
The Man Standing Next (2020)

The Man Standing Next (2020)

Jan. 22, 2020South Korea114 Min.N/A
Your rating: 0
5 1 vote

Synopsis

In the 1970s, Korea is under the absolute control of the President Park who controls the KCIA, the organization with an edge over any branch of government. The director of KCIA, KIM Gyu-pyeong, is the seemingly most prospective second-in-command. In the midst of reign of fear, a former KCIA director, PARK Yong-gak who knows all about the government’s obscure operations, exiles to the U.S. where the investigation of ‘Koreagate’ is underway. As the tension escalates, the stifling political maneuvering by the all second-in-command’s unfolds.

The Man Standing Next (2020) 1080p BRrip HEVC DDP 5.1 PoOlLa (1 GB)

Format : Matroska
Format version : Version 4
File size : 1.05 GiB
Duration : 1 h 53 min
Overall bit rate : 1 323 kb/s
Writing application : Lavf58.49.100
Writing library : Lavf58.49.100
ErrorDetectionType : Per level 1

Video
ID : 1
Format : HEVC
Format/Info : High Efficiency Video Coding
Format profile : Main@L4@Main
Codec ID : V_MPEGH/ISO/HEVC
Duration : 1 h 53 min
Bit rate : 849 kb/s
Width : 1 920 pixels
Height : 1 036 pixels
Display aspect ratio : 1.85:1
Frame rate mode : Variable
Original frame rate : 23.976 FPS
Color space : YUV
Chroma subsampling : 4:2:0
Bit depth : 8 bits
Stream size : 691 MiB (64%)
Writing library : x265 3.4:[Linux][GCC 8.3.0][64 bit] 8bit+10bit+12bit
Default : Yes
Forced : No
Color range : Limited
Color primaries : BT.709
Transfer characteristics : BT.709
Matrix coefficients : BT.709

Audio
ID : 2
Format : E-AC-3
Format/Info : Enhanced AC-3
Commercial name : Dolby Digital Plus
Codec ID : A_EAC3
Duration : 1 h 53 min
Bit rate mode : Constant
Bit rate : 448 kb/s
Channel(s) : 6 channels
Channel layout : L R C LFE Ls Rs
Sampling rate : 48.0 kHz
Frame rate : 31.250 FPS (1536 SPF)
Bit depth : 24 bits
Compression mode : Lossy
Stream size : 365 MiB (34%)
Writing library : Lavc58.99.100 eac3
Service kind : Complete Main
Default : Yes
Forced : No

Text
ID : 3
Format : PGS
Codec ID : S_HDMV/PGS
Codec ID/Info : Picture based subtitle format used on BDs/HD-DVDs
Duration : 1 h 48 min

The Man Standing Next (2020) 720p BRrip HEVC 10bit AAC 2.0 PoOlLa (365 M)

Format : Matroska
Format version : Version 4
File size : 366 MiB
Duration : 1 h 53 min
Overall bit rate : 450 kb/s
Movie name : ENcoded By PoOlLa
Encoded date : UTC 2020-11-13 16:03:20
Writing application : mkvmerge v51.0.0 (‘I Wish’) 64-bit
Writing library : libebml v1.4.0 + libmatroska v1.6.2

Video
ID : 1
Format : HEVC
Format/Info : High Efficiency Video Coding
Format profile : Main 10@L3.1@Main
Codec ID : V_MPEGH/ISO/HEVC
Duration : 1 h 53 min
Bit rate : 382 kb/s
Width : 1 280 pixels
Height : 690 pixels
Display aspect ratio : 1.85:1
Frame rate mode : Constant
Frame rate : 23.976 (24000/1001) FPS
Color space : YUV
Chroma subsampling : 4:2:0
Bit depth : 10 bits
Bits/(Pixel*Frame) : 0.018
Stream size : 311 MiB (85%)
Default : Yes
Forced : No
Color range : Limited
Color primaries : BT.709
Transfer characteristics : BT.709
Matrix coefficients : BT.709

Audio
ID : 2
Format : AAC LC SBR
Format/Info : Advanced Audio Codec Low Complexity with Spectral Band Replication
Commercial name : HE-AAC
Format settings : Explicit
Codec ID : A_AAC-2
Duration : 1 h 53 min
Bit rate : 62.4 kb/s
Channel(s) : 2 channels
Channel layout : L R
Sampling rate : 48.0 kHz
Frame rate : 23.438 FPS (2048 SPF)
Compression mode : Lossy
Delay relative to video : 23 ms
Stream size : 50.8 MiB (14%)
Language : Korean
Default : No
Forced : No

Text
ID : 3
Format : VobSub
Muxing mode : zlib
Codec ID : S_VOBSUB
Codec ID/Info : Picture based subtitle format used on DVDs
Duration : 1 h 47 min
Bit rate : 5 754 b/s
Count of elements : 935
Stream size : 4.43 MiB (1%)
Language : English
Default : Yes
Forced : No

Telegram  Download Guide  Donate

The Man Standing Next (2020)
The Man Standing Next (2020)
The Man Standing Next (2020)
The Man Standing Next (2020)
The Man Standing Next (2020)
The Man Standing Next (2020)
Original title 남산의 부장들
IMDb Rating 7 1,935 votes
TMDb Rating 6.5 29 votes

Director

Woo Min-ho
Director

Cast

Lee Byung-hun isKim Gyu-pyeong
Kim Gyu-pyeong
Lee Sung-min isPresident Park
President Park
Kwak Do-won isPark Yong-gak
Park Yong-gak
Lee Hee-jun isKwak Sang-cheon
Kwak Sang-cheon
Kim So-jin isDeborah Shim
Deborah Shim
Seo Hyun-woo isJeon Du-hyeok
Jeon Du-hyeok
Kim Min-sang isJang Seung-ho
Jang Seung-ho
Kim Hong-pa isAmbassador Yun
Ambassador Yun
Park Ji-il isKim Gye-hoon
Kim Gye-hoon
Ji Hyeon-jun isKCIA agent Ham Dae-yong
KCIA agent Ham Dae-yong

Similar titles

As Far As My Feet Will Carry Me (2001)
A Nest of Gentry (1969)
Mersal (2017)
#Home (2021)
More Than Blue (2009)
Cherry (2021)
Paar (1984)
The Dark Knight (2008)
Toni Erdmann (2016)
Kanchana Sita
The Great Beauty (2013)
Kunjikkoonan
CinemaKottaga