Video Sources 206 Views

  • Watch trailer
The Raid 2 (2014)

The Raid 2 (2014)

It's not over yet.Mar. 27, 2014Indonesia150 Min.R
Your rating: 0
0 0 votes

Synopsis

After fighting his way through an apartment building populated by an army of dangerous criminals and escaping with his life, SWAT team member Rama goes undercover, joining a powerful Indonesian crime syndicate to protect his family and uncover corrupt members of his own force.

The Raid 2 (2014) 1080p BRrip HEVC 10bit DDP 5.1 PoOlLa (3.2 GB)

Format : Matroska
Format version : Version 4
File size : 3.21 GiB
Duration : 2 h 30 min
Overall bit rate : 3 058 kb/s
Writing application : Lavf58.76.100
Writing library : Lavf58.76.100
Comment : Ripped By PoOlLa @ cinemakottaga.ml
ErrorDetectionType : Per level 1

Video
ID : 1
Format : HEVC
Format/Info : High Efficiency Video Coding
Format profile : Main [email protected]@Main
Codec ID : V_MPEGH/ISO/HEVC
Duration : 2 h 30 min
Bit rate : 2 358 kb/s
Width : 1 920 pixels
Height : 800 pixels
Display aspect ratio : 2.40:1
Frame rate mode : Variable
Original frame rate : 23.976 FPS
Color space : YUV
Chroma subsampling : 4:2:0
Bit depth : 10 bits
Stream size : 2.48 GiB (77%)
Writing library : Lavc58.134.100 hevc_nvenc
Default : Yes
Forced : No
Color range : Limited
Color primaries : BT.709
Transfer characteristics : BT.709
Matrix coefficients : BT.709

Audio
ID : 2
Format : E-AC-3
Format/Info : Enhanced AC-3
Commercial name : Dolby Digital Plus
Codec ID : A_EAC3
Duration : 2 h 30 min
Bit rate mode : Constant
Bit rate : 640 kb/s
Channel(s) : 6 channels
Channel layout : L R C LFE Ls Rs
Sampling rate : 48.0 kHz
Frame rate : 31.250 FPS (1536 SPF)
Bit depth : 32 bits
Compression mode : Lossy
Stream size : 689 MiB (21%)
Writing library : Lavc58.134.100 eac3
Service kind : Complete Main
Default : Yes
Forced : No

Text
ID : 3
Format : UTF-8
Codec ID : S_TEXT/UTF8
Codec ID/Info : UTF-8 Plain Text
Duration : 2 h 25 min
Default : Yes
Forced : No

The Raid 2 (2014) 1080p BRrip HEVC AAC 5.1 PoOlLa (1.6 GB)

Format : Matroska
Format version : Version 4
File size : 1.62 GiB
Duration : 2 h 30 min
Overall bit rate : 1 543 kb/s
Writing application : Lavf59.3.100
Writing library : Lavf59.3.100
ErrorDetectionType : Per level 1

Video
ID : 1
Format : HEVC
Format/Info : High Efficiency Video Coding
Format profile : [email protected]@Main
Codec ID : V_MPEGH/ISO/HEVC
Duration : 2 h 30 min
Width : 1 920 pixels
Height : 800 pixels
Display aspect ratio : 2.40:1
Frame rate mode : Constant
Frame rate : 23.976 (24000/1001) FPS
Color space : YUV
Chroma subsampling : 4:2:0
Bit depth : 8 bits
Writing library : Lavc59.1.101 libx265
Default : Yes
Forced : No
Color range : Limited
Color primaries : BT.709
Transfer characteristics : BT.709
Matrix coefficients : BT.709

Audio
ID : 2
Format : AAC LC
Format/Info : Advanced Audio Codec Low Complexity
Codec ID : A_AAC-2
Duration : 2 h 30 min
Channel(s) : 6 channels
Channel layout : L R C Cb Lb Rb
Sampling rate : 48.0 kHz
Frame rate : 46.875 FPS (1024 SPF)
Compression mode : Lossy
Writing library : Lavc59.1.101 aac
Default : Yes
Forced : No

Text
ID : 3
Format : UTF-8
Codec ID : S_TEXT/UTF8
Codec ID/Info : UTF-8 Plain Text
Duration : 2 h 25 min
Default : Yes
Forced : No

The Raid 2 (2014) 720p BRrip HEVC 10bit AAC 5.1 PoOlLa (980 MB)

Format : Matroska
Format version : Version 4
File size : 985 MiB
Duration : 2 h 30 min
Overall bit rate : 915 kb/s
Movie name : The Raid 2 (2014) Ripped By PoOlLa | cinemakottaga.ml
Encoded date : UTC 2021-07-18 05:55:27
Writing application : mkvmerge v56.1.0 (‘My Friend’) 64-bit
Writing library : libebml v1.4.2 + libmatroska v1.6.4

Video
ID : 1
Format : HEVC
Format/Info : High Efficiency Video Coding
Format profile : Main [email protected]@Main
Codec ID : V_MPEGH/ISO/HEVC
Duration : 2 h 30 min
Bit rate : 714 kb/s
Width : 1 280 pixels
Height : 534 pixels
Display aspect ratio : 2.40:1
Frame rate mode : Variable
Frame rate : 23.976 FPS
Color space : YUV
Chroma subsampling : 4:2:0
Bit depth : 10 bits
Bits/(Pixel*Frame) : 0.044
Stream size : 769 MiB (78%)
Default : Yes
Forced : No
Color range : Limited
Color primaries : BT.709
Transfer characteristics : BT.709
Matrix coefficients : BT.709

Audio
ID : 2
Format : AAC LC SBR
Format/Info : Advanced Audio Codec Low Complexity with Spectral Band Replication
Commercial name : HE-AAC
Format settings : Explicit
Codec ID : A_AAC-2
Duration : 2 h 30 min
Bit rate : 199 kb/s
Channel(s) : 6 channels
Channel layout : C L R Ls Rs LFE
Sampling rate : 48.0 kHz
Frame rate : 23.438 FPS (2048 SPF)
Compression mode : Lossy
Delay relative to video : 23 ms
Stream size : 214 MiB (22%)
Language : Indonesian
Default : Yes
Forced : No

Text
ID : 3
Format : UTF-8
Codec ID : S_TEXT/UTF8
Codec ID/Info : UTF-8 Plain Text
Duration : 2 h 23 min
Bit rate : 28 b/s
Count of elements : 961
Stream size : 29.9 KiB (0%)
Language : English
Default : Yes
Forced : No

The Raid 2 (2014) 720p BRrip HEVC 10bit Opus 2.0 PoOlLa (690 MB)

Format : Matroska
Format version : Version 4
File size : 695 MiB
Duration : 2 h 30 min
Overall bit rate : 646 kb/s
Writing application : Lavf59.3.100
Writing library : Lavf59.3.100
ErrorDetectionType : Per level 1

Video
ID : 1
Format : HEVC
Format/Info : High Efficiency Video Coding
Format profile : Main [email protected]@Main
Codec ID : V_MPEGH/ISO/HEVC
Duration : 2 h 30 min
Width : 1 280 pixels
Height : 534 pixels
Display aspect ratio : 2.40:1
Frame rate mode : Variable
Original frame rate : 23.976 FPS
Color space : YUV
Chroma subsampling : 4:2:0
Bit depth : 10 bits
Writing library : Lavc59.1.101 libx265
Default : Yes
Forced : No
Color range : Limited
Color primaries : BT.709
Transfer characteristics : BT.709
Matrix coefficients : BT.709

Audio
ID : 2
Format : Opus
Codec ID : A_OPUS
Duration : 2 h 30 min
Channel(s) : 2 channels
Channel layout : L R
Sampling rate : 48.0 kHz
Bit depth : 32 bits
Compression mode : Lossy
Writing library : Lavc59.1.101 libopus
Default : Yes
Forced : No

Text
ID : 3
Format : UTF-8
Codec ID : S_TEXT/UTF8
Codec ID/Info : UTF-8 Plain Text
Duration : 2 h 25 min
Default : Yes
Forced : No

Telegram  Download Guide  Donate

The Raid 2 (2014)
The Raid 2 (2014)
The Raid 2 (2014)
The Raid 2 (2014)
The Raid 2 (2014)
The Raid 2 (2014)
The Raid 2 (2014)
The Raid 2 (2014)
The Raid 2 (2014)
The Raid 2 (2014)
Original title The Raid 2: Berandal
IMDb Rating 8 116,743 votes
TMDb Rating 7.6 1,685 votes

Director

Gareth Evans
Director

Cast

Similar titles

Arabesque (1966)
Police Story (1985)
Those Who Wish Me Dead (2021)
Léon: The Professional (1994)
Hero (2002)
24 (2016)
Lucia (2013)
Adverse (2020)
Theeran Adhigaaram Ondru (2017)
At Home Among Strangers (1974)
Sunshine (2007)
The Kung Fu Master (2020)
CinemaKottaga