Video Sources 257 Views

  • Watch trailer
The Raid (2012)

The Raid (2012)

1 Ruthless Crime Lord, 20 Elite Cops, 30 Floors of HellMar. 22, 2012Indonesia101 Min.R
Your rating: 0
7 1 vote

Synopsis

Deep in the heart of Jakarta’s slums lies an impenetrable safe house for the world’s most dangerous killers and gangsters. Until now, the run-down apartment block has been considered untouchable to even the bravest of police. Cloaked under the cover of pre-dawn darkness and silence, an elite swat team is tasked with raiding the safe house in order to take down the notorious drug lord that runs it. But when a chance encounter with a spotter blows their cover and news of their assault reaches the drug lord, the building’s lights are cut and all the exits blocked. Stranded on the sixth floor with no way out, the unit must fight their way through the city’s worst to survive their mission.

The Raid Redemption (2011) 1080p BRrip HEVC 10bit DDP 5.1 PoOlLa (2.2 GB)

Format : Matroska
Format version : Version 4
File size : 2.28 GiB
Duration : 1 h 40 min
Overall bit rate : 3 240 kb/s
Movie name : The Raid Redemption (2011) Ripped By PoOlLa | cinemakottaga.ml
Encoded date : UTC 2021-07-19 16:33:37
Writing application : mkvmerge v56.1.0 (‘My Friend’) 64-bit
Writing library : libebml v1.4.2 + libmatroska v1.6.4

Video
ID : 1
Format : HEVC
Format/Info : High Efficiency Video Coding
Format profile : Main [email protected]@Main
Codec ID : V_MPEGH/ISO/HEVC
Duration : 1 h 40 min
Bit rate : 2 597 kb/s
Width : 1 920 pixels
Height : 1 080 pixels
Display aspect ratio : 16:9
Frame rate mode : Variable
Frame rate : 23.976 (23976/1000) FPS
Original frame rate : 23.976 (24000/1001) FPS
Color space : YUV
Chroma subsampling : 4:2:0
Bit depth : 10 bits
Bits/(Pixel*Frame) : 0.052
Stream size : 1.83 GiB (80%)
Default : Yes
Forced : No
Color range : Limited

Audio
ID : 2
Format : E-AC-3
Format/Info : Enhanced AC-3
Commercial name : Dolby Digital Plus
Codec ID : A_EAC3
Duration : 1 h 40 min
Bit rate mode : Constant
Bit rate : 640 kb/s
Channel(s) : 6 channels
Channel layout : L R C LFE Ls Rs
Sampling rate : 48.0 kHz
Frame rate : 31.250 FPS (1536 SPF)
Bit depth : 24 bits
Compression mode : Lossy
Stream size : 461 MiB (20%)
Service kind : Complete Main
Default : Yes
Forced : No

Text
ID : 3
Format : VobSub
Muxing mode : zlib
Codec ID : S_VOBSUB
Codec ID/Info : Picture based subtitle format used on DVDs
Duration : 1 h 40 min
Bit rate : 3 753 b/s
Count of elements : 686
Stream size : 2.70 MiB (0%)
Language : English
Default : Yes
Forced : No

The Raid Redemption (2011) 1080p BRrip HEVC 10bit DUAL AAC 5.1 PoOlLa (1.7 GB)

Format : Matroska
Format version : Version 4
File size : 1.75 GiB
Duration : 1 h 40 min
Overall bit rate : 2 485 kb/s
Movie name : The Raid Redemption (2011) Ripped By PoOlLa | cinemakottaga.ml
Encoded date : UTC 2021-07-19 16:36:07
Writing application : mkvmerge v56.1.0 (‘My Friend’) 64-bit
Writing library : libebml v1.4.2 + libmatroska v1.6.4

Video
ID : 1
Format : HEVC
Format/Info : High Efficiency Video Coding
Format profile : Main [email protected]@Main
Codec ID : V_MPEGH/ISO/HEVC
Duration : 1 h 40 min
Bit rate : 1 840 kb/s
Width : 1 920 pixels
Height : 1 080 pixels
Display aspect ratio : 16:9
Frame rate mode : Variable
Frame rate : 23.976 FPS
Color space : YUV
Chroma subsampling : 4:2:0
Bit depth : 10 bits
Bits/(Pixel*Frame) : 0.037
Stream size : 1.30 GiB (74%)
Default : Yes
Forced : No
Color range : Limited

Audio #1
ID : 2
Format : AAC LC
Format/Info : Advanced Audio Codec Low Complexity
Codec ID : A_AAC-2
Duration : 1 h 40 min
Bit rate : 320 kb/s
Channel(s) : 6 channels
Channel layout : C L R Ls Rs LFE
Sampling rate : 48.0 kHz
Frame rate : 46.875 FPS (1024 SPF)
Compression mode : Lossy
Stream size : 231 MiB (13%)
Language : Indonesian
Default : Yes
Forced : No

Audio #2
ID : 3
Format : AAC LC
Format/Info : Advanced Audio Codec Low Complexity
Codec ID : A_AAC-2
Duration : 1 h 40 min
Bit rate : 320 kb/s
Channel(s) : 6 channels
Channel layout : C L R Ls Rs LFE
Sampling rate : 48.0 kHz
Frame rate : 46.875 FPS (1024 SPF)
Compression mode : Lossy
Stream size : 231 MiB (13%)
Language : English
Default : No
Forced : No

Text
ID : 4
Format : VobSub
Muxing mode : zlib
Codec ID : S_VOBSUB
Codec ID/Info : Picture based subtitle format used on DVDs
Duration : 1 h 40 min
Bit rate : 3 753 b/s
Count of elements : 686
Stream size : 2.70 MiB (0%)
Language : English
Default : Yes
Forced : No

The Raid Redemption (2011) 720p BRrip HEVC 10bit AAC 5.1 PoOlLa (820 MB)

Format : Matroska
Format version : Version 4
File size : 820 MiB
Duration : 1 h 41 min
Overall bit rate : 1 134 kb/s
Movie name : Ripped By PoOlLa | cinemakottaga.ml
Encoded date : UTC 2021-07-20 03:01:50
Writing application : mkvmerge v56.1.0 (‘My Friend’) 64-bit
Writing library : libebml v1.4.2 + libmatroska v1.6.4

Video
ID : 1
Format : HEVC
Format/Info : High Efficiency Video Coding
Format profile : Main [email protected]@Main
Codec ID : V_MPEGH/ISO/HEVC
Duration : 1 h 41 min
Bit rate : 936 kb/s
Width : 1 280 pixels
Height : 720 pixels
Display aspect ratio : 16:9
Frame rate mode : Constant
Frame rate : 23.976 (24000/1001) FPS
Color space : YUV
Chroma subsampling : 4:2:0
Bit depth : 10 bits
Bits/(Pixel*Frame) : 0.042
Stream size : 677 MiB (83%)
Default : Yes
Forced : No
Color range : Limited
Color primaries : BT.709
Transfer characteristics : BT.709
Matrix coefficients : BT.709

Audio
ID : 2
Format : AAC LC SBR
Format/Info : Advanced Audio Codec Low Complexity with Spectral Band Replication
Commercial name : HE-AAC
Format settings : Explicit
Codec ID : A_AAC-2
Duration : 1 h 40 min
Bit rate : 196 kb/s
Channel(s) : 6 channels
Channel layout : C L R Ls Rs LFE
Sampling rate : 48.0 kHz
Frame rate : 23.438 FPS (2048 SPF)
Compression mode : Lossy
Stream size : 141 MiB (17%)
Language : Indonesian
Default : Yes
Forced : No

Text
ID : 3
Format : UTF-8
Codec ID : S_TEXT/UTF8
Codec ID/Info : UTF-8 Plain Text
Duration : 1 h 35 min
Bit rate : 23 b/s
Count of elements : 522
Stream size : 16.3 KiB (0%)
Language : English
Default : Yes
Forced : No

The Raid Redemption (2011) 720p BRrip HEVC 10bit AAC 2.0 PoOlLa (430 MB)

Format : Matroska
Format version : Version 4
File size : 430 MiB
Duration : 1 h 41 min
Overall bit rate : 595 kb/s
Encoded date : UTC 2021-07-19 16:25:11
Writing application : mkvmerge v44.0.0 (‘Domino’) 64-bit
Writing library : libebml v1.3.10 + libmatroska v1.5.2

Video
ID : 1
Format : HEVC
Format/Info : High Efficiency Video Coding
Format profile : Main [email protected]@Main
Codec ID : V_MPEGH/ISO/HEVC
Duration : 1 h 41 min
Bit rate : 544 kb/s
Width : 1 280 pixels
Height : 720 pixels
Display aspect ratio : 16:9
Frame rate mode : Constant
Frame rate : 23.976 (24000/1001) FPS
Color space : YUV
Chroma subsampling : 4:2:0
Bit depth : 10 bits
Bits/(Pixel*Frame) : 0.025
Stream size : 393 MiB (91%)
Title : The Raid Redemption (2011) Ripped By PoOlLa | cinemakottaga.ml
Writing library : x265 1.9+7-dc62b47dd0d9:[Windows][GCC 5.3.0][64 bit] 10bit
Default : Yes
Forced : No

Audio
ID : 2
Format : AAC LC SBR
Format/Info : Advanced Audio Codec Low Complexity with Spectral Band Replication
Commercial name : HE-AAC
Format settings : Explicit
Codec ID : A_AAC-2
Duration : 1 h 41 min
Bit rate : 48.0 kb/s
Channel(s) : 2 channels
Channel layout : L R
Sampling rate : 48.0 kHz
Frame rate : 23.438 FPS (2048 SPF)
Compression mode : Lossy
Delay relative to video : 40 ms
Stream size : 35.6 MiB (8%)
Language : Indonesian
Default : Yes
Forced : No

Text
ID : 3
Format : UTF-8
Codec ID : S_TEXT/UTF8
Codec ID/Info : UTF-8 Plain Text
Duration : 1 h 33 min
Bit rate : 23 b/s
Count of elements : 521
Stream size : 16.3 KiB (0%)
Language : English
Default : Yes
Forced : No

 

Telegram  Download Guide  Donate

The Raid (2012)
The Raid (2012)
The Raid (2012)
The Raid (2012)
The Raid (2012)
The Raid (2012)
The Raid (2012)
The Raid (2012)
The Raid (2012)
The Raid (2012)
Original title Serbuan maut
IMDb Rating 7.6 194,675 votes
TMDb Rating 7.4 2,395 votes

Similar titles

Iruvar (1997)
Dangal (2016)
Jungle Cruise (2021)
Petta
Black Widow (2021)
Demonte Colony (2015)
One (2021)
Ayirathil Oruvan (2010)
Nayattu (2021)
Vada Chennai (2018)
Cocktail (2010)
Parava
CinemaKottaga