Video Sources 53 Views

  • Watch trailer
The Raven (2012)

The Raven (2012)

The only one who can stop a serial killer is the man who inspired him.Mar. 09, 2012United States111 Min.R
Your rating: 0
5 1 vote

Synopsis

A fictionalized account of the last days of Edgar Allan Poe’s life, in which the poet is in pursuit of a serial killer whose murders mirror those in the writer’s stories.

The.Raven.2012.720p.10bit.BluRay.x265.2CH.HEVC-MPEG7 (440MB)

Source …:The.Raven.2012.1080p.GBR.Blu-ray.AVC.DTS-HD.MA 5.1-hyb9373

Format : Matroska
Format version : Version 4
File size : 437 MiB
Duration : 1 h 50 min
Overall bit rate : 551 kb/s
Movie name : MPEG7 | The.Raven.2012.720p.10bit.BluRay.x265.2CH.HEVC-MPEG7 | www.cinemakottaga.ml
Encoded date : UTC 2021-11-21 05:16:40
Writing application : mkvmerge v63.0.0 (‘Everything’) 64-bit
Writing library : libebml v1.4.2 + libmatroska v1.6.4
Cover : Yes
Attachments : cover.jpg

Video
ID : 1
Format : HEVC
Format/Info : High Efficiency Video Coding
Format profile : Main 10@L3.1@Main
Codec ID : V_MPEGH/ISO/HEVC
Duration : 1 h 50 min
Bit rate : 479 kb/s
Width : 1 280 pixels
Height : 534 pixels
Display aspect ratio : 2.40:1
Frame rate mode : Constant
Frame rate : 23.976 (24000/1001) FPS
Color space : YUV
Chroma subsampling : 4:2:0
Bit depth : 10 bits
Bits/(Pixel*Frame) : 0.029
Stream size : 380 MiB (87%)
Title : MPEG7 | www.cinemakottaga.ml
Default : Yes
Forced : No
Color range : Limited
Color primaries : BT.709
Transfer characteristics : BT.709
Matrix coefficients : BT.709

Audio
ID : 2
Format : AAC LC SBR
Format/Info : Advanced Audio Codec Low Complexity with Spectral Band Replication
Commercial name : HE-AAC
Format settings : NBC
Codec ID : A_AAC-5
Duration : 1 h 50 min
Bit rate : 70.0 kb/s
Channel(s) : 2 channels
Channel layout : L R
Sampling rate : 48.0 kHz
Frame rate : 23.438 FPS (2048 SPF)
Compression mode : Lossy
Delay relative to video : -105 ms
Stream size : 55.5 MiB (13%)
Title : MPEG7 | www.cinemakottaga.ml
Language : English
Default : Yes
Forced : No

Text
ID : 3
Format : UTF-8
Codec ID : S_TEXT/UTF8
Codec ID/Info : UTF-8 Plain Text
Duration : 1 h 42 min
Bit rate : 56 b/s
Count of elements : 1294
Stream size : 42.4 KiB (0%)
Title : MPEG7 | www.cinemakottaga.ml
Language : English
Default : Yes
Forced : No

 

 

The.Raven.2012.1080p.10bit.BluRay.x265.6CH.HEVC-MPEG7 (1.1GB)

Source …: The.Raven.2012.1080p.GBR.Blu-ray.AVC.DTS-HD.MA 5.1-hyb9373

Format : Matroska
Format version : Version 4
File size : 1.11 GiB
Duration : 1 h 50 min
Overall bit rate : 1 433 kb/s
Movie name : MPEG7 | The.Raven.2012.1080p.10bit.BluRay.x265.6CH.HEVC-MPEG7 | www.cinemakottaga.ml
Encoded date : UTC 2021-11-21 05:52:52
Writing application : mkvmerge v63.0.0 (‘Everything’) 64-bit
Writing library : libebml v1.4.2 + libmatroska v1.6.4
Cover : Yes
Attachments : cover.jpg

Video
ID : 1
Format : HEVC
Format/Info : High Efficiency Video Coding
Format profile : Main 10@L4@High
Codec ID : V_MPEGH/ISO/HEVC
Duration : 1 h 50 min
Bit rate : 1 202 kb/s
Width : 1 920 pixels
Height : 800 pixels
Display aspect ratio : 2.40:1
Frame rate mode : Constant
Frame rate : 23.976 (24000/1001) FPS
Color space : YUV
Chroma subsampling : 4:2:0
Bit depth : 10 bits
Bits/(Pixel*Frame) : 0.033
Stream size : 953 MiB (84%)
Title : MPEG7 | www.cinemakottaga.ml
Default : Yes
Forced : No
Color range : Limited

Audio
ID : 2
Format : AAC LC SBR
Format/Info : Advanced Audio Codec Low Complexity with Spectral Band Replication
Commercial name : HE-AAC
Format settings : NBC
Codec ID : A_AAC-5
Duration : 1 h 50 min
Bit rate : 216 kb/s
Channel(s) : 6 channels
Channel layout : C L R Ls Rs LFE
Sampling rate : 48.0 kHz
Frame rate : 23.438 FPS (2048 SPF)
Compression mode : Lossy
Stream size : 171 MiB (15%)
Title : MPEG7 | www.cinemakottaga.ml
Language : English
Default : Yes
Forced : No

Text #1
ID : 3
Format : UTF-8
Codec ID : S_TEXT/UTF8
Codec ID/Info : UTF-8 Plain Text
Duration : 1 h 42 min
Bit rate : 56 b/s
Count of elements : 1294
Stream size : 42.4 KiB (0%)
Title : MPEG7 | www.cinemakottaga.ml
Language : English
Default : Yes
Forced : No

Text #2
ID : 4
Format : PGS
Muxing mode : zlib
Codec ID : S_HDMV/PGS
Codec ID/Info : Picture based subtitle format used on BDs/HD-DVDs
Duration : 1 h 42 min
Bit rate : 33.3 kb/s
Count of elements : 2595
Stream size : 24.4 MiB (2%)
Title : MPEG7 | www.cinemakottaga.ml
Language : English
Default : Yes
Forced : No

 

The.Raven.2012.1080p.10bit.BluRay.x265.DDP.6CH.HEVC-MPEG7 (4GB)

Source …:The.Raven.2012.1080p.GBR.Blu-ray.AVC.DTS-HD.MA 5.1-hyb9373

Format : Matroska
Format version : Version 4
File size : 3.92 GiB
Duration : 1 h 50 min
Overall bit rate : 5 062 kb/s
Movie name : MPEG7 | The.Raven.2012.1080p.10bit.BluRay.x265.DDP.6CH.HEVC-MPEG7 | www.cinemakottaga.ml
Encoded date : UTC 2021-11-20 16:19:02
Writing application : mkvmerge v63.0.0 (‘Everything’) 64-bit
Writing library : libebml v1.4.2 + libmatroska v1.6.4
Cover : Yes
Attachments : cover.jpg

Video
ID : 1
Format : HEVC
Format/Info : High Efficiency Video Coding
Format profile : Main 10@L4@High
Codec ID : V_MPEGH/ISO/HEVC
Duration : 1 h 50 min
Bit rate : 4 384 kb/s
Width : 1 920 pixels
Height : 800 pixels
Display aspect ratio : 2.40:1
Frame rate mode : Constant
Frame rate : 23.976 (24000/1001) FPS
Color space : YUV
Chroma subsampling : 4:2:0
Bit depth : 10 bits
Bits/(Pixel*Frame) : 0.119
Stream size : 3.40 GiB (87%)
Title : MPEG7 | www.cinemakottaga.ml
Default : Yes
Forced : No
Color range : Limited

Audio
ID : 2
Format : E-AC-3
Format/Info : Enhanced AC-3
Commercial name : Dolby Digital Plus
Codec ID : A_EAC3
Duration : 1 h 50 min
Bit rate mode : Constant
Bit rate : 640 kb/s
Channel(s) : 6 channels
Channel layout : L R C LFE Ls Rs
Sampling rate : 48.0 kHz
Frame rate : 31.250 FPS (1536 SPF)
Bit depth : 24 bits
Compression mode : Lossy
Delay relative to video : -105 ms
Stream size : 508 MiB (13%)
Title : MPEG7 | www.cinemakottaga.ml
Language : English
Service kind : Complete Main
Default : Yes
Forced : No

Text #1
ID : 3
Format : PGS
Muxing mode : zlib
Codec ID : S_HDMV/PGS
Codec ID/Info : Picture based subtitle format used on BDs/HD-DVDs
Duration : 1 h 42 min
Bit rate : 33.3 kb/s
Count of elements : 2595
Stream size : 24.4 MiB (1%)
Title : MPEG7 | www.cinemakottaga.ml
Language : English
Default : Yes
Forced : No

Text #2
ID : 4
Format : PGS
Muxing mode : zlib
Codec ID : S_HDMV/PGS
Codec ID/Info : Picture based subtitle format used on BDs/HD-DVDs
Duration : 1 h 43 min
Bit rate : 57.5 kb/s
Count of elements : 3340
Stream size : 42.7 MiB (1%)
Title : MPEG7 | www.cinemakottaga.ml
Language : English
Default : Yes
Forced : No

 

 

 

Telegram  Download Guide  Donate

The Raven (2012)
The Raven (2012)
The Raven (2012)
The Raven (2012)
The Raven (2012)
The Raven (2012)
The Raven (2012)
Original title The Raven
IMDb Rating 6.4 83,942 votes
TMDb Rating 6.3 1,013 votes

Director

Cast

John Cusack isEdgar Allan Poe
Edgar Allan Poe
Luke Evans isDetective Fields
Detective Fields
Alice Eve isEmily Hamilton
Emily Hamilton
Brendan Gleeson isColonel Hamilton
Colonel Hamilton
Jimmy Yuill isCaptain Eldridge
Captain Eldridge
Pam Ferris isMrs. Bradley
Mrs. Bradley

Similar titles

Ira (2018)
The Godfather: Part III (1990)
Baby’s Day Out
Samrajyam
The Conjuring: The Devil Made Me Do It (2021)
Red (2021)
Snatch (2000)
Salaam Bombay (1988)
The Sicilian Clan (1969)
Farewell, Friend
Legend (2015)
Neram (2013)
CinemaKottaga