Video Sources 479 Views

  • Watch trailer
The Social Dilemma (2020)

The Social Dilemma (2020)

The technology that connects us also controls us.Jan. 26, 2020United States94 Min.PG-13
Your rating: 0
7 1 vote

Synopsis

This documentary-drama hybrid explores the dangerous human impact of social networking, with tech experts sounding the alarm on their own creations.

The Social Dilemma (2020) 720p 10bit WEBRip HEVC 2CH HSB

File size : 434MB 

Duration : 1h 34min

Source : The.Social.Dilemma.2020.1080p.NF.WEB-DL.DDP5.1.H.264-pawel2006.mkv

VideoFormat : HEVC

Width : 1280 pixels

Height : 720 pixels

AudioFormat : AAC

Format/Info : Advanced Audio Codec

Channel(s) : 2 channels

Language : English

TextFormat : ASS

Language : English

 

The Social Dilemma (2020) 540p NF WEB-DL 6CH AAC x264-BaTsY

File Size: 305MB

Duration: 1h 34min

VideoFormat : x264

Width : 960 pixels

Height : 540 pixels

Audio Format : AAC

Channel(s) : 6 Channels

Subtitles : English (srt)

Language : English

 

The Social Dilemma (2020) 720p NF WEB-DL DDP5.1 x264-BaTsY

General
Unique ID : 176309409239756799843504736313248429818 (0x84A3F502BFEC779242FD6D190815B6FA)
Complete name : The.Social.Dilemma.2020.720p.WEB-DL.DDP5.1.x264-BaTsY.mkv
Format : Matroska
Format version : Version 4 / Version 2
Duration : 1 h 34 min
Movie name : The.Social.Dilemma.2020.720p.WEB-DL.DDP5.1.x264-BaTsY
Encoded date : UTC 2020-09-11 23:05:16
Writing application : mkvmerge v49.0.0 (‘Sick Of Losing Soulmates’) 64-bit
Writing library : libebml v1.4.0 + libmatroska v1.6.1
FileExtension_Invalid : mkv mk3d mka mks

Video
ID : 1
Format : AVC
Format/Info : Advanced Video Codec
Format profile : High@L3.1
Format settings : CABAC / 3 Ref Frames
Format settings, CABAC : Yes
Format settings, ReFrames : 3 frames
Codec ID : V_MPEG4/ISO/AVC
Duration : 1 h 34 min
Bit rate : 607 kb/s
Width : 1 280 pixels
Height : 720 pixels
Display aspect ratio : 16:9
Frame rate mode : Constant
Frame rate : 23.976 (24000/1001) FPS
Color space : YUV
Chroma subsampling : 4:2:0
Bit depth : 8 bits
Scan type : Progressive
Bits/(Pixel*Frame) : 0.027
Stream size : 410 MiB
Title : The.Social.Dilemma.2020.720p.WEB-DL.DDP5.1.x264-BaTsY
Default : Yes
Forced : No

Audio
ID : 2
Format : E-AC-3
Format/Info : Enhanced Audio Coding 3
Codec ID : A_EAC3
Duration : 1 h 34 min
Bit rate mode : Constant
Bit rate : 384 kb/s
Channel(s) : 6 channels
Channel positions : Front: L C R, Side: L R, LFE
Sampling rate : 48.0 kHz
Frame rate : 187.500 FPS (256 SPF)
Compression mode : Lossy
Delay relative to video : -83 ms
Stream size : 259 MiB
Title : The.Social.Dilemma.2020.720p.WEB-DL.DDP5.1.x264-BaTsY
Language : English
Service kind : Complete Main
Default : Yes
Forced : No

Text
ID : 3
Format : UTF-8
Codec ID : S_TEXT/UTF8
Codec ID/Info : UTF-8 Plain Text
Duration : 1 h 33 min
Bit rate : 115 b/s
Count of elements : 1707
Stream size : 78.8 KiB
Title : The.Social.Dilemma.2020.720p.WEB-DL.DDP5.1.x264-BaTsY
Language : English
Default : Yes
Forced : No

 

Telegram  Download Guide  Donate

The Social Dilemma (2020)
The Social Dilemma (2020)
The Social Dilemma (2020)
Original title The Social Dilemma
IMDb Rating 7.7 64,973 votes
TMDb Rating 8.4 67 votes

Similar titles

Frailty (2001)
Vaaranam Aayiram (2008)
Cuckoo (2014)
Shiva Baby (2020)
Newton (2017)
Hunterrr (2015)
Water (2005)
Cry Macho (2021)
XXY (2007)
Naan Kadavul (2009)
Big Fish (2003)
Cash Truck (2004)
CinemaKottaga