The Way We Laughed (1998)

The Way We Laughed (1998)

Jan. 01, 1998Italy124 Min.N/A
Your rating: 0
6 1 vote

Synopsis

Studying to become a teacher in Turin, Italy, Pietro is joined by his older brother, Giovanni, who has moved up from Sicily. While Giovanni is a worker with no schooling, Pietro shows considerable promise in academics, prompting the elder sibling to seek employment to support his brother’s academic pursuits. Unfortunately, things don’t go well for Giovanni and Pietro, and they face significant hardships as they try to improve their lives.

The Way We Laughed (1998) 720p DVDRip HEVC 10bit AAC 2.0 PoOlLa (615 MB)

Format : Matroska
Format version : Version 4
File size : 616 MiB
Duration : 2 h 2 min
Overall bit rate : 702 kb/s
Movie name : The Way We Laughed (1998) 720p DVDRip HEVC 10bit AAC 2.0 PoOlLa
Writing application : mkvmerge v59.0.0 (‘Shining Star’) 64-bit
Writing library : libebml v1.4.2 + libmatroska v1.6.4

Video
ID : 1
Format : HEVC
Format/Info : High Efficiency Video Coding
Format profile : Main 10@L4@Main
Codec ID : V_MPEGH/ISO/HEVC
Duration : 2 h 2 min
Bit rate : 608 kb/s
Width : 1 280 pixels
Height : 544 pixels
Display aspect ratio : 2.35:1
Frame rate mode : Constant
Frame rate : 25.000 FPS
Color space : YUV
Chroma subsampling : 4:2:0
Bit depth : 10 bits
Bits/(Pixel*Frame) : 0.035
Stream size : 533 MiB (87%)
Title : Encoded by PoOlLa | cinemakottaga.ml
Color range : Limited
Transfer characteristics : BT.709

Audio
ID : 2
Format : AAC LC SBR
Format/Info : Advanced Audio Codec Low Complexity with Spectral Band Replication
Commercial name : HE-AAC
Format settings : Explicit
Codec ID : A_AAC-2
Duration : 2 h 2 min
Bit rate : 92.0 kb/s
Channel(s) : 2 channels
Channel layout : L R
Sampling rate : 48.0 kHz
Frame rate : 23.438 FPS (2048 SPF)
Compression mode : Lossy
Delay relative to video : 23 ms
Stream size : 80.7 MiB (13%)

Text
ID : 3
Format : UTF-8
Codec ID : S_TEXT/UTF8
Stream size : 33.9 KiB (0%)
Language : English

Telegram  Download Guide  Donate

The Way We Laughed (1998)
The Way We Laughed (1998)
Original title Così ridevano
IMDb Rating 6.8 776 votes
TMDb Rating 7.4 24 votes

Director

Cast

Similar titles

Cry Macho (2021)
Fight Club (1999)
The Chaser (2008)
Karnan (2021)
Me and Earl and the Dying Girl (2015)
The Last Duel (2021)
Hitch-Hiking (1991)
Top Gun (1986)
Gantumoote (2019)
Oridathu
Sun Children (2020)
Lifted (2010)
CinemaKottaga