Thittam Irandu (2021)

Thittam Irandu (2021)

Jul. 30, 2021India117 Min.N/A
Your rating: 0
8 1 vote

Synopsis

Athira, a 25-year-old cop gets to investigate her best friend’s missing case. The case turns out to be very mysterious when she suspects that her accident has been staged and that she has been murdered. After digging deep into the case, she gets to know shocking revelations about her and now she has to make some life-changing decisions.

Thittam Irandu (2021) 2160p TK WEB-DL HEVC 10bit AC3 5.1 PoOlLa (3.4 GB)

Format : Matroska
Format version : Version 4
File size : 3.42 GiB
Duration : 2 h 2 min
Overall bit rate : 3 999 kb/s
Writing application : Lavf58.76.100
Writing library : Lavf58.76.100
Comment : Ripped By PoOlLa @ cinemakottaga.ml
ErrorDetectionType : Per level 1

Video
ID : 1
Format : HEVC
Format/Info : High Efficiency Video Coding
Format profile : Main [email protected]@Main
Codec ID : V_MPEGH/ISO/HEVC
Duration : 2 h 2 min
Bit rate : 3 471 kb/s
Width : 3 840 pixels
Height : 1 642 pixels
Display aspect ratio : 2.35:1
Frame rate mode : Constant
Frame rate : 23.976 (24000/1001) FPS
Color space : YUV
Chroma subsampling : 4:2:0
Bit depth : 10 bits
Bits/(Pixel*Frame) : 0.023
Stream size : 2.97 GiB (87%)
Writing library : Lavc58.134.100 hevc_nvenc
Default : Yes
Forced : No
Color range : Limited
Color primaries : BT.709
Transfer characteristics : BT.709
Matrix coefficients : BT.709

Audio
ID : 2
Format : AC-3
Format/Info : Audio Coding 3
Commercial name : Dolby Digital
Codec ID : A_AC3
Duration : 2 h 2 min
Bit rate mode : Constant
Bit rate : 448 kb/s
Channel(s) : 6 channels
Channel layout : L R C LFE Ls Rs
Sampling rate : 48.0 kHz
Frame rate : 31.250 FPS (1536 SPF)
Bit depth : 32 bits
Compression mode : Lossy
Stream size : 393 MiB (11%)
Service kind : Complete Main
Default : Yes
Forced : No

Text
ID : 3
Format : UTF-8
Codec ID : S_TEXT/UTF8
Codec ID/Info : UTF-8 Plain Text
Duration : 2 h 0 min
Default : Yes
Forced : No

Thittam Irandu (2021) 1080p TK WEB-DL HEVC 10bit AC3 5.1 PoOlLa (1.5 GB)

Format : Matroska
Format version : Version 4
File size : 1.49 GiB
Duration : 2 h 2 min
Overall bit rate : 1 745 kb/s
Writing application : Lavf58.76.100
Writing library : Lavf58.76.100
Comment : Ripped By PoOlLa @ cinemakottaga.ml
ErrorDetectionType : Per level 1

Video
ID : 1
Format : HEVC
Format/Info : High Efficiency Video Coding
Format profile : Main [email protected]@Main
Codec ID : V_MPEGH/ISO/HEVC
Duration : 2 h 2 min
Bit rate : 1 263 kb/s
Width : 1 920 pixels
Height : 820 pixels
Display aspect ratio : 2.35:1
Frame rate mode : Constant
Frame rate : 29.970 (30000/1001) FPS
Color space : YUV
Chroma subsampling : 4:2:0
Bit depth : 10 bits
Bits/(Pixel*Frame) : 0.027
Stream size : 1.08 GiB (72%)
Writing library : Lavc58.134.100 hevc_nvenc
Default : Yes
Forced : No
Color range : Limited
Color primaries : BT.709
Transfer characteristics : BT.709
Matrix coefficients : BT.709

Audio
ID : 2
Format : AC-3
Format/Info : Audio Coding 3
Commercial name : Dolby Digital
Codec ID : A_AC3
Duration : 2 h 2 min
Bit rate mode : Constant
Bit rate : 448 kb/s
Channel(s) : 6 channels
Channel layout : L R C LFE Ls Rs
Sampling rate : 48.0 kHz
Frame rate : 31.250 FPS (1536 SPF)
Bit depth : 32 bits
Compression mode : Lossy
Stream size : 393 MiB (26%)
Service kind : Complete Main
Default : Yes
Forced : No

Text
ID : 3
Format : UTF-8
Codec ID : S_TEXT/UTF8
Codec ID/Info : UTF-8 Plain Text
Duration : 2 h 0 min
Default : Yes
Forced : No

Thittam Irandu (2021) 720p TK WEB-DL HEVC 10bit Opus 2.0 PoOlLa (470 Mb)

Format : Matroska
Format version : Version 4
File size : 470 MiB
Duration : 2 h 2 min
Overall bit rate : 537 kb/s
Writing application : Lavf59.3.100
Writing library : Lavf59.3.100
ErrorDetectionType : Per level 1

Video
ID : 1
Format : HEVC
Format/Info : High Efficiency Video Coding
Format profile : Main [email protected]@Main
Codec ID : V_MPEGH/ISO/HEVC
Duration : 2 h 2 min
Width : 1 280 pixels
Height : 546 pixels
Display aspect ratio : 2.35:1
Frame rate mode : Variable
Original frame rate : 29.970 FPS
Color space : YUV
Chroma subsampling : 4:2:0
Bit depth : 10 bits
Writing library : Lavc59.1.101 libx265
Default : Yes
Forced : No
Color range : Limited
Color primaries : BT.709
Transfer characteristics : BT.709
Matrix coefficients : BT.709

Audio
ID : 2
Format : Opus
Codec ID : A_OPUS
Duration : 2 h 2 min
Channel(s) : 2 channels
Channel layout : L R
Sampling rate : 48.0 kHz
Bit depth : 32 bits
Compression mode : Lossy
Writing library : Lavc59.1.101 libopus
Default : Yes
Forced : No

Text
ID : 3
Format : UTF-8
Codec ID : S_TEXT/UTF8
Codec ID/Info : UTF-8 Plain Text
Duration : 2 h 0 min
Default : Yes
Forced : No

Telegram  Download Guide  Donate

Thittam Irandu (2021)
Thittam Irandu (2021)
Original title Thittam Irandu

Similar titles

Scarface
Sanak (2021)
Bell Bottom (2021)
Coyote Lake (2019)
Se7en
Diabolically Yours
Mersal (2017)
The Infiltrator (2016)
The Great Father
Theeran Adhigaaram Ondru (2017)
Remember (2015)
Ezra(2017)
CinemaKottaga