Video Sources 148 Views

  • Watch trailer
Unfaithful (2002)

Unfaithful (2002)

Where do you go when you've gone too far?May. 10, 2002France124 Min.R
Your rating: 0
0 0 votes

Synopsis

Connie is a wife and mother whose 11-year marriage to Edward has lost its sexual spark. When Connie literally runs into handsome book collector Paul, he sweeps her into an all-consuming affair. But Edward soon becomes suspicious and decides to confront the other man.

Unfaithful (2002) 720p 10bit BluRay x265 2CH HEVC MPEG7 (550MB)

Source …: Unfaithful.2002.1080p.Blu-ray.Remux.AVC.DTS-HD.MA-5.1-KRaLiMaRKo

Format : Matroska
Format version : Version 4
File size : 551 MiB
Duration : 2 h 3 min
Overall bit rate : 623 kb/s
Movie name : MPEG7 | Unfaithful.2002.720p.10bit.BluRay.x265.2CH.HEVC-MPEG7 | www.cinemakottaga.ml
Encoded date : UTC 2021-09-12 06:30:34
Writing application : mkvmerge v61.0.0 (‘So’) 64-bit
Writing library : libebml v1.4.2 + libmatroska v1.6.4
Cover : Yes
Attachments : cover.jpg

Video
ID : 1
Format : HEVC
Format/Info : High Efficiency Video Coding
Format profile : Main [email protected]@Main
Codec ID : V_MPEGH/ISO/HEVC
Duration : 2 h 3 min
Bit rate : 540 kb/s
Width : 1 280 pixels
Height : 694 pixels
Display aspect ratio : 1.85:1
Frame rate mode : Variable
Frame rate : 23.976 (23976/1000) FPS
Original frame rate : 23.976 (24000/1001) FPS
Color space : YUV
Chroma subsampling : 4:2:0
Bit depth : 10 bits
Bits/(Pixel*Frame) : 0.025
Stream size : 477 MiB (87%)
Default : Yes
Forced : No
Color range : Limited
Color primaries : BT.709
Transfer characteristics : BT.709
Matrix coefficients : BT.709

Audio
ID : 2
Format : Opus
Codec ID : A_OPUS
Duration : 2 h 3 min
Bit rate : 65.5 kb/s
Channel(s) : 2 channels
Channel layout : L R
Sampling rate : 48.0 kHz
Frame rate : 50.000 FPS (960 SPF)
Bit depth : 24 bits
Compression mode : Lossy
Stream size : 57.9 MiB (11%)
Title : MPEG7 | www.cinemakottaga.ml
Language : English
Default : Yes
Forced : No

Text
ID : 3
Format : PGS
Muxing mode : zlib
Codec ID : S_HDMV/PGS
Codec ID/Info : Picture based subtitle format used on BDs/HD-DVDs
Duration : 1 h 56 min
Bit rate : 39.0 kb/s
Count of elements : 2500
Stream size : 32.4 MiB (6%)
Title : MPEG7 | www.cinemakottaga.ml
Language : English
Default : No
Forced : No

 

Unfaithful (2002) 1080p 10bit BluRay x265 6CH HEVC MPEG7 (1.4GB)

Source …: Unfaithful.2002.1080p.Blu-ray.Remux.AVC.DTS-HD.MA-5.1-KRaLiMaRKo

Format : Matroska
Format version : Version 4
File size : 1.36 GiB
Duration : 2 h 3 min
Overall bit rate : 1 575 kb/s
Movie name : MPEG7 | Unfaithful.2002.1080p.10bit.BluRay.x265.6CH.HEVC-MPEG7 | www.cinemakottaga.ml
Encoded date : UTC 2021-09-11 18:01:08
Writing application : mkvmerge v61.0.0 (‘So’) 64-bit
Writing library : libebml v1.4.2 + libmatroska v1.6.4
Cover : Yes
Attachments : cover.jpg

Video
ID : 1
Format : HEVC
Format/Info : High Efficiency Video Coding
Format profile : Main [email protected]@Main
Codec ID : V_MPEGH/ISO/HEVC
Duration : 2 h 3 min
Bit rate : 1 336 kb/s
Width : 1 920 pixels
Height : 1 032 pixels
Display aspect ratio : 1.85:1
Frame rate mode : Constant
Frame rate : 23.976 (24000/1001) FPS
Color space : YUV
Chroma subsampling : 4:2:0
Bit depth : 10 bits
Bits/(Pixel*Frame) : 0.028
Stream size : 1.15 GiB (85%)
Title : MPEG7 | www.cinemakottaga.ml
Default : Yes
Forced : No
Color range : Limited
Color primaries : BT.709
Transfer characteristics : BT.709
Matrix coefficients : BT.709

Audio
ID : 2
Format : Opus
Codec ID : A_OPUS
Duration : 2 h 3 min
Bit rate : 221 kb/s
Channel(s) : 6 channels
Channel layout : L R C Lb Rb LFE
Sampling rate : 48.0 kHz
Frame rate : 50.000 FPS (960 SPF)
Compression mode : Lossy
Stream size : 195 MiB (14%)
Title : MPEG7 | www.cinemakottaga.ml
Writing library : ShanaEncoder
Language : English
Default : Yes
Forced : No

Text
ID : 3
Format : PGS
Muxing mode : zlib
Codec ID : S_HDMV/PGS
Codec ID/Info : Picture based subtitle format used on BDs/HD-DVDs
Duration : 1 h 56 min
Bit rate : 39.0 kb/s
Count of elements : 2500
Stream size : 32.4 MiB (2%)
Title : MPEG7 | www.cinemakottaga.ml
Language : English
Default : No
Forced : No

Menu
00:00:00.000 : Main Titles
00:01:49.693 : A Normal Family
00:05:33.208 : The Wind
00:09:20.935 : A Book Dealer
00:17:33.803 : Home Movies
00:20:15.881 : A Phone Call
00:26:59.660 : Visiting Edward
00:30:48.722 : Seeing Paul
00:41:41.457 : In Public
00:43:09.462 : A Bath
00:48:14.725 : Suspicion
00:55:56.478 : Loyalty
00:57:15.599 : A Detective
01:05:59.164 : Just a Friend
01:10:49.954 : Confronting Paul
01:19:15.709 : Cleaning Up
01:24:58.760 : The School Play
01:29:03.046 : Eliminating Evidence
01:33:58.675 : N.Y.P.D.
01:42:52.917 : At the Cleaners
01:44:30.222 : A Dinner Party
01:49:55.422 : A Message
01:56:18.013 : We Could Disappear
01:58:47.746 : End Titles

 

 

Telegram  Download Guide  Donate

Unfaithful (2002)
Unfaithful (2002)
Unfaithful (2002)
Unfaithful (2002)
Unfaithful (2002)
Unfaithful (2002)
Original title Unfaithful
IMDb Rating 6.7 83,766 votes
TMDb Rating 6.6 1,043 votes

Director

Adrian Lyne
Director

Cast

Richard Gere isEd Sumner
Ed Sumner
Diane Lane isConstance
Constance "Connie" Sumner
Olivier Martinez isPaul Martel
Paul Martel
Erik Per Sullivan isCharlie Sumner
Charlie Sumner
Zeljko Ivanek isDetective Dean
Detective Dean
Dominic Chianese isFrank Wilson
Frank Wilson
Chad Lowe isBill Stone
Bill Stone
Gary Basaraba isDetective Mirojnick
Detective Mirojnick

Similar titles

Fist of Fury (1972)
Innale (1989)
Annette (2021)
Memories of Murder (2003)
A Yellow Bird
AK vs AK (2020)
Much Ado About Nothing
Jersey
Quo vadis, Aida? (2021)
Bilitis (1977)
Ludo (2020)
The Lincoln Lawyer (2011)
CinemaKottaga