Video Sources 1660 Views

  • Watch trailer
Vaazhl (2021)

Vaazhl (2021)

Jul. 16, 2021India1 Min.N/A
Your rating: 0
0 0 votes

Synopsis

Revolves around the life of a 90-year-old, who refuses to come out of his bungalow but his life takes unexpected turns after a couple of youngsters accidentally enter his house.

Vaazhl (2021) 2160p SS WEB-DL HEVC 10bit DDP 5.1 Atmos PoOlLa (3.2 GB)

Format : Matroska
Format version : Version 4
File size : 3.24 GiB
Duration : 1 h 52 min
Overall bit rate : 4 126 kb/s
Writing application : Lavf58.76.100
Writing library : Lavf58.76.100
Comment : Ripped By PoOlLa @ cinemakottaga.ml
ErrorDetectionType : Per level 1

Video
ID : 1
Format : HEVC
Format/Info : High Efficiency Video Coding
Format profile : Main [email protected]@Main
Codec ID : V_MPEGH/ISO/HEVC
Duration : 1 h 52 min
Bit rate : 3 596 kb/s
Width : 3 840 pixels
Height : 1 640 pixels
Display aspect ratio : 2.35:1
Frame rate mode : Constant
Frame rate : 24.000 FPS
Color space : YUV
Chroma subsampling : 4:2:0
Bit depth : 10 bits
Bits/(Pixel*Frame) : 0.024
Stream size : 2.83 GiB (87%)
Writing library : Lavc58.134.100 hevc_nvenc
Default : Yes
Forced : No
Color range : Limited

Audio
ID : 2
Format : E-AC-3 JOC
Format/Info : Enhanced AC-3 with Joint Object Coding
Commercial name : Dolby Digital Plus with Dolby Atmos
Codec ID : A_EAC3
Duration : 1 h 52 min
Bit rate mode : Constant
Bit rate : 448 kb/s
Channel(s) : 6 channels
Channel layout : L R C LFE Ls Rs
Sampling rate : 48.0 kHz
Frame rate : 31.250 FPS (1536 SPF)
Bit depth : 32 bits
Compression mode : Lossy
Stream size : 361 MiB (11%)
Service kind : Complete Main
Default : Yes
Forced : No
Complexity index : 16
Number of dynamic objects : 15
Bed channel count : 1 channel
Bed channel configuration : LFE

Text
ID : 3
Format : UTF-8
Codec ID : S_TEXT/UTF8
Codec ID/Info : UTF-8 Plain Text
Duration : 1 h 52 min
Default : Yes
Forced : No

Vaazhl (2021) 1080p TK WEB-DL HEVC DDP 5.1 Atmos PoOlLa (1.4 GB)

Format : Matroska
Format version : Version 4
File size : 1.39 GiB
Duration : 1 h 52 min
Overall bit rate : 1 766 kb/s
Writing application : Lavf59.3.100
Writing library : Lavf59.3.100
ErrorDetectionType : Per level 1

Video
ID : 1
Format : HEVC
Format/Info : High Efficiency Video Coding
Format profile : [email protected]@Main
Codec ID : V_MPEGH/ISO/HEVC
Duration : 1 h 52 min
Bit rate : 1 283 kb/s
Width : 1 920 pixels
Height : 820 pixels
Display aspect ratio : 2.35:1
Frame rate mode : Constant
Frame rate : 29.970 (30000/1001) FPS
Color space : YUV
Chroma subsampling : 4:2:0
Bit depth : 8 bits
Bits/(Pixel*Frame) : 0.027
Stream size : 1.01 GiB (73%)
Writing library : Lavc59.1.101 libx265
Default : Yes
Forced : No
Color range : Limited
Color primaries : BT.709
Transfer characteristics : BT.709
Matrix coefficients : BT.709

Audio
ID : 2
Format : E-AC-3 JOC
Format/Info : Enhanced AC-3 with Joint Object Coding
Commercial name : Dolby Digital Plus with Dolby Atmos
Codec ID : A_EAC3
Duration : 1 h 52 min
Bit rate mode : Constant
Bit rate : 448 kb/s
Channel(s) : 6 channels
Channel layout : L R C LFE Ls Rs
Sampling rate : 48.0 kHz
Frame rate : 31.250 FPS (1536 SPF)
Bit depth : 32 bits
Compression mode : Lossy
Delay relative to video : 500 ms
Stream size : 361 MiB (25%)
Service kind : Complete Main
Default : Yes
Forced : No
Complexity index : 16
Number of dynamic objects : 15
Bed channel count : 1 channel
Bed channel configuration : LFE

Text
ID : 3
Format : UTF-8
Codec ID : S_TEXT/UTF8
Codec ID/Info : UTF-8 Plain Text
Duration : 1 h 52 min
Default : Yes
Forced : No

Vaazhl (2021) 720p SS WEB-DL HEVC 10bit Opus 2.0 PoOlLa (610 MB)

Format : Matroska
Format version : Version 4
File size : 614 MiB
Duration : 1 h 52 min
Overall bit rate : 762 kb/s
Writing application : Lavf59.3.100
Writing library : Lavf59.3.100
ErrorDetectionType : Per level 1

Video
ID : 1
Format : HEVC
Format/Info : High Efficiency Video Coding
Format profile : Main [email protected]@Main
Codec ID : V_MPEGH/ISO/HEVC
Duration : 1 h 52 min
Width : 1 280 pixels
Height : 546 pixels
Display aspect ratio : 2.35:1
Frame rate mode : Variable
Original frame rate : 24.000 FPS
Color space : YUV
Chroma subsampling : 4:2:0
Bit depth : 10 bits
Writing library : Lavc59.1.101 libx265
Default : Yes
Forced : No
Color range : Limited
Color primaries : BT.709
Transfer characteristics : BT.709
Matrix coefficients : BT.709

Audio
ID : 2
Format : Opus
Codec ID : A_OPUS
Duration : 1 h 52 min
Channel(s) : 2 channels
Channel layout : L R
Sampling rate : 48.0 kHz
Bit depth : 32 bits
Compression mode : Lossy
Writing library : Lavc59.1.101 libopus
Default : Yes
Forced : No

Text
ID : 3
Format : UTF-8
Codec ID : S_TEXT/UTF8
Codec ID/Info : UTF-8 Plain Text
Duration : 1 h 52 min
Default : Yes
Forced : No

Telegram  Download Guide  Donate

Original title வாழ்
IMDb Rating N/A N/A votes
TMDb Rating 9 1 votes

Similar titles

End of Watch (2012)
Annayum Rasoolum
Exodus: Gods and Kings (2014)
303 (2018)
12 (2007)
Anbe Sivam (2003)
Vellam (2021)
Summer in Bethlehem
The 12th Man (2017)
Sun Children (2020)
Yuvam (2021)
Even the Rain (2010)
CinemaKottaga