Video Sources 984 Views

  • Watch trailer
Wrath of Man (2021)

Wrath of Man (2021)

A one man army.Apr. 22, 2021United States118 Min.R
Your rating: 0
6 1 vote

Synopsis

A cold and mysterious new security guard for a Los Angeles cash truck company surprises his co-workers when he unleashes precision skills during a heist. The crew is left wondering who he is and where he came from. Soon, the marksman’s ultimate motive becomes clear as he takes dramatic and irrevocable steps to settle a score.

Wrath.of.Man.2021.720p.10bit.BluRay.x265.2CH.HEVC-MPEG7 (542MB)

Source …: Wrath.of.Man.2021.1080p.BluRay.REMUX.AVC.Atmos.TrueHD.7.1-TayTO

Format : Matroska
Format version : Version 4
File size : 542 MiB
Duration : 1 h 58 min
Overall bit rate : 637 kb/s
Movie name : MPEG7 | Wrath.of.Man.2021.720p.10bit.BluRay.x265.2CH.HEVC-MPEG7 | www.cinemakottaga.ml
Encoded date : UTC 2021-11-14 07:29:59
Writing application : mkvmerge v62.0.0 (‘Apollo’) 64-bit
Writing library : libebml v1.4.2 + libmatroska v1.6.4
Cover : Yes
Attachments : cover.jpg

Video
ID : 1
Format : HEVC
Format/Info : High Efficiency Video Coding
Format profile : Main 10@L3.1@Main
Codec ID : V_MPEGH/ISO/HEVC
Duration : 1 h 58 min
Bit rate : 565 kb/s
Width : 1 280 pixels
Height : 536 pixels
Display aspect ratio : 2.40:1
Frame rate mode : Constant
Frame rate : 23.976 (24000/1001) FPS
Color space : YUV
Chroma subsampling : 4:2:0
Bit depth : 10 bits
Bits/(Pixel*Frame) : 0.034
Stream size : 481 MiB (89%)
Title : MPEG7 | www.cinemakottaga.ml
Default : Yes
Forced : No
Color range : Limited
Color primaries : BT.709
Transfer characteristics : BT.709
Matrix coefficients : BT.709

Audio
ID : 2
Format : AAC LC SBR
Format/Info : Advanced Audio Codec Low Complexity with Spectral Band Replication
Commercial name : HE-AAC
Format settings : NBC
Codec ID : A_AAC-5
Duration : 1 h 58 min
Bit rate : 70.0 kb/s
Channel(s) : 2 channels
Channel layout : L R
Sampling rate : 48.0 kHz
Frame rate : 23.438 FPS (2048 SPF)
Compression mode : Lossy
Delay relative to video : -105 ms
Stream size : 59.4 MiB (11%)
Title : MPEG7 | www.cinemakottaga.ml
Language : English
Default : Yes
Forced : Yes

Text #1
ID : 3
Format : UTF-8
Codec ID : S_TEXT/UTF8
Codec ID/Info : UTF-8 Plain Text
Duration : 1 h 50 min
Bit rate : 56 b/s
Count of elements : 1383
Stream size : 46.0 KiB (0%)
Title : MPEG7 | www.cinemakottaga.ml
Language : English
Default : Yes
Forced : No

Text #2
ID : 4
Format : UTF-8
Codec ID : S_TEXT/UTF8
Codec ID/Info : UTF-8 Plain Text
Duration : 1 h 51 min
Bit rate : 63 b/s
Count of elements : 1510
Stream size : 51.9 KiB (0%)
Title : MPEG7 | www.cinemakottaga.ml
Language : English
Default : Yes
Forced : No

 

Wrath.of.Man.2021.1080p.10bit.BluRay.x265.8CH.HEVC-MPEG7 (1.5GB)

Source …: Wrath.of.Man.2021.1080p.BluRay.REMUX.AVC.Atmos.TrueHD.7.1-TayTO

Format : Matroska
Format version : Version 4
File size : 1.50 GiB
Duration : 1 h 58 min
Overall bit rate : 1 811 kb/s
Movie name : MPEG7 | Wrath.of.Man.2021.1080p.10bit.BluRay.x265.8CH.HEVC-MPEG7 | www.cinemakottaga.ml
Encoded date : UTC 2021-11-14 06:34:06
Writing application : mkvmerge v62.0.0 (‘Apollo’) 64-bit
Writing library : libebml v1.4.2 + libmatroska v1.6.4
Cover : Yes
Attachments : cover.jpg

Video
ID : 1
Format : HEVC
Format/Info : High Efficiency Video Coding
Format profile : Main 10@L4@Main
Codec ID : V_MPEGH/ISO/HEVC
Duration : 1 h 58 min
Bit rate : 1 475 kb/s
Width : 1 920 pixels
Height : 800 pixels
Display aspect ratio : 2.40:1
Frame rate mode : Constant
Frame rate : 23.976 (24000/1001) FPS
Color space : YUV
Chroma subsampling : 4:2:0
Bit depth : 10 bits
Bits/(Pixel*Frame) : 0.040
Stream size : 1.23 GiB (81%)
Title : MPEG7 | www.cinemakottaga.ml
Default : Yes
Forced : No
Color range : Limited

Audio
ID : 2
Format : AAC LC SBR
Format/Info : Advanced Audio Codec Low Complexity with Spectral Band Replication
Commercial name : HE-AAC
Format settings : NBC
Codec ID : A_AAC-2
Duration : 1 h 58 min
Bit rate : 320 kb/s
Channel(s) : 8 channels
Channel layout : C L R Ls Rs Lb Rb LFE
Sampling rate : 48.0 kHz
Frame rate : 23.438 FPS (2048 SPF)
Compression mode : Lossy
Stream size : 272 MiB (18%)
Title : MPEG7 | www.cinemakottaga.ml
Language : English
Default : Yes
Forced : No

Text #1
ID : 3
Format : PGS
Muxing mode : zlib
Codec ID : S_HDMV/PGS
Codec ID/Info : Picture based subtitle format used on BDs/HD-DVDs
Duration : 1 h 51 min
Bit rate : 36.2 kb/s
Count of elements : 3020
Stream size : 28.8 MiB (2%)
Title : MPEG7 | www.cinemakottaga.ml
Language : English
Default : Yes
Forced : Yes

Text #2
ID : 4
Format : UTF-8
Codec ID : S_TEXT/UTF8
Codec ID/Info : UTF-8 Plain Text
Duration : 1 h 50 min
Bit rate : 56 b/s
Count of elements : 1383
Stream size : 46.0 KiB (0%)
Title : MPEG7 | www.cinemakottaga.ml
Language : English
Default : Yes
Forced : No

Text #3
ID : 5
Format : UTF-8
Codec ID : S_TEXT/UTF8
Codec ID/Info : UTF-8 Plain Text
Duration : 1 h 51 min
Bit rate : 63 b/s
Count of elements : 1510
Stream size : 51.9 KiB (0%)
Title : MPEG7 | www.cinemakottaga.ml
Language : English
Default : Yes
Forced : No

 

 

Wrath of Man (2021) 720p 10bit AMZN WEB-DL 2CH HEVC HSB (589MB)

Source …….: Wrath.of.Man.2021.1080p.AMZN.WEB-DL.DDP5.1.H264-CMRG
Runtime ……: 1hr 58min
Video ……..: HEVC | 1280 x 534 | 10bit
Audio ……..: 2CH HE-AAC English
Subs …………: English

Wrath of Man (2021) 1080p 10bit AMZN WEB-DL 6CH HEVC HSB (1.18GB)

Source …….: Wrath.of.Man.2021.1080p.AMZN.WEB-DL.DDP5.1.H264-CMRG
Runtime ……: 1hr 58min
Video ……..: HEVC | 1920 x 800 | 10bit
Audio ……..: 6CH HE-AAC English
Subs …………: English

Wrath of Man (2021) 1080p 10bit AMZN WEB-DL 6CH HDR HEVC MPEG7 (1.5GB)

Source ....: Wrath.of.Man.2021.2160p.AMZN.WEB-DL.DDP5.1.HDR.HEVC-CMRG      Format : Matroska  Format version : Version 4  File size : 1.49 GiB  Duration : 1 h 58 min  Overall bit rate : 1 793 kb/s  Movie name : Wrath.of.Man.2021.1080p.10bit.AMZN.WEB-DL.HDR.6CH.AAC.HEVC-MPEG7 | www.cinemakottaga.ml  Encoded date : UTC 2021-05-25 18:40:32  Writing application : mkvmerge v57.0.0 ('Till The End') 64-bit  Writing library : libebml v1.4.2 + libmatroska v1.6.4  Cover : Yes  Attachments : cover.jpg    Video  ID : 1  Format : HEVC  Format/Info : High Efficiency Video Coding  Format profile : Main 10@L4@High  HDR format : SMPTE ST 2086, HDR10 compatible  Codec ID : V_MPEGH/ISO/HEVC  Duration : 1 h 58 min  Bit rate : 1 461 kb/s  Width : 1 920 pixels  Height : 800 pixels  Display aspect ratio : 2.40:1  Frame rate mode : Constant  Frame rate : 23.976 (24000/1001) FPS  Color space : YUV  Chroma subsampling : 4:2:0 (Type 2)  Bit depth : 10 bits  Bits/(Pixel*Frame) : 0.040  Stream size : 1.21 GiB (81%)  Title : MPEG7 | www.cinemakottaga.ml  Default : Yes  Forced : No  Color range : Limited  Color primaries : BT.2020  Transfer characteristics : PQ  Matrix coefficients : BT.2020 non-constant  Mastering display color pri : Display P3  Mastering display luminance : min: 0.0050 cd/m2, max: 1000 cd/m2  Maximum Content Light Level : 717 cd/m2  Maximum Frame-Average Light : 194 cd/m2    Audio  ID : 2  Format : AAC LC  Format/Info : Advanced Audio Codec Low Complexity  Codec ID : A_AAC-2  Duration : 1 h 58 min  Bit rate : 330 kb/s  Channel(s) : 6 channels  Channel layout : C L R Ls Rs LFE  Sampling rate : 48.0 kHz  Frame rate : 46.875 FPS (1024 SPF)  Compression mode : Lossy  Stream size : 281 MiB (18%)  Title : MPEG7 | www.cinemakottaga.ml  Language : English  Default : Yes  Forced : No    Text  ID : 3  Format : UTF-8  Codec ID : S_TEXT/UTF8  Codec ID/Info : UTF-8 Plain Text  Duration : 1 h 52 min  Bit rate : 62 b/s  Count of elements : 1794  Stream size : 51.6 KiB (0%)  Title : MPEG7 | www.cinemakottaga.ml  Language : English  Default : Yes  Forced : No

 

Telegram  Download Guide  Donate

Wrath of Man (2021)
Wrath of Man (2021)
Wrath of Man (2021)
Wrath of Man (2021)
Wrath of Man (2021)
Wrath of Man (2021)
Wrath of Man (2021)
Original title Wrath of Man
IMDb Rating 7.4 7,833 votes
TMDb Rating 7.7 73 votes

Similar titles

Teddy (2021)
Enthiran (2010)
Molly’s Game (2017)
The Rover (2014)
Madras (2014)
Rebel (2012)
Jar City (2006)
Demon Slayer –Kimetsu no Yaiba– The Movie: Mugen Train (2020)
Dawn of the Dead (2004)
The Guilty (2021)
A Taxi Driver
Batman v Superman: Dawn of Justice (2016)
CinemaKottaga