Video Sources 708 Views

  • Watch trailer
Yutham Sei (2011)

Yutham Sei (2011)

Feb. 03, 2011India160 Min.N/A
Your rating: 0
0 0 votes

Synopsis

A CBCID officer investigates an eccentric series of crimes happening in the city. His investigation leads him to unexpected crime perpetrators.

Yutham Sei (2011) 1080p TK WEB-DL HEVC AC3 5.1 PoOlLa (1.88 GB)

Format : Matroska
Format version : Version 4
File size : 1.88 GiB
Duration : 2 h 32 min
Overall bit rate : 1 770 kb/s
Writing application : Lavf59.3.100
Writing library : Lavf59.3.100
ErrorDetectionType : Per level 1

Video
ID : 1
Format : HEVC
Format/Info : High Efficiency Video Coding
Format profile : [email protected]@Main
Codec ID : V_MPEGH/ISO/HEVC
Duration : 2 h 32 min
Bit rate : 1 415 kb/s
Width : 1 920 pixels
Height : 832 pixels
Display aspect ratio : 2.35:1
Frame rate mode : Constant
Frame rate : 25.000 FPS
Color space : YUV
Chroma subsampling : 4:2:0
Bit depth : 8 bits
Bits/(Pixel*Frame) : 0.035
Stream size : 1.50 GiB (80%)
Writing library : Lavc59.1.101 libx265
Default : Yes
Forced : No
Color range : Limited
Color primaries : BT.709
Transfer characteristics : BT.709
Matrix coefficients : BT.709

Audio
ID : 2
Format : AC-3
Format/Info : Audio Coding 3
Commercial name : Dolby Digital
Codec ID : A_AC3
Duration : 2 h 32 min
Bit rate mode : Constant
Bit rate : 320 kb/s
Channel(s) : 6 channels
Channel layout : L R C LFE Ls Rs
Sampling rate : 48.0 kHz
Frame rate : 31.250 FPS (1536 SPF)
Bit depth : 32 bits
Compression mode : Lossy
Stream size : 348 MiB (18%)
Service kind : Complete Main
Default : Yes
Forced : No

Text
ID : 3
Format : UTF-8
Codec ID : S_TEXT/UTF8
Codec ID/Info : UTF-8 Plain Text
Duration : 2 h 32 min
Default : Yes
Forced : No

Yutham Sei (2011) 720p TK WEB-DL HEVC 10bit Opus 2.0 PoOlLa (725 MB)

Format : Matroska
Format version : Version 4
File size : 727 MiB
Duration : 2 h 32 min
Overall bit rate : 669 kb/s
Writing application : Lavf59.2.100
Writing library : Lavf59.2.100
ErrorDetectionType : Per level 1

Video
ID : 1
Format : HEVC
Format/Info : High Efficiency Video Coding
Format profile : Main [email protected]@Main
Codec ID : V_MPEGH/ISO/HEVC
Duration : 2 h 32 min
Width : 1 280 pixels
Height : 554 pixels
Display aspect ratio : 2.35:1
Frame rate mode : Variable
Original frame rate : 25.000 FPS
Color space : YUV
Chroma subsampling : 4:2:0
Bit depth : 10 bits
Writing library : Lavc59.1.100 libx265
Default : Yes
Forced : No
Color range : Limited
Color primaries : BT.709
Transfer characteristics : BT.709
Matrix coefficients : BT.709

Audio
ID : 2
Format : Opus
Codec ID : A_OPUS
Duration : 2 h 32 min
Channel(s) : 2 channels
Channel layout : L R
Sampling rate : 48.0 kHz
Bit depth : 32 bits
Compression mode : Lossy
Writing library : Lavc59.1.100 libopus
Default : Yes
Forced : No

Text
ID : 3
Format : UTF-8
Codec ID : S_TEXT/UTF8
Codec ID/Info : UTF-8 Plain Text
Duration : 2 h 32 min
Default : Yes
Forced : No

Telegram  Download Guide  Donate

Yutham Sei (2011)
Yutham Sei (2011)
Original title யுத்தம் செய்
IMDb Rating 8 1,791 votes
TMDb Rating 7.4 8 votes

Director

Mysskin
Director

Cast

Cheran isJ. Krishnamoorthy
J. Krishnamoorthy
Dipa Shah isThamizh
Thamizh
Y. G. Mahendran isDr.Purushottaman
Dr.Purushottaman
Lakshmi Ramakrishnan isPurushotaman's Wife
Purushotaman's Wife
Jayaprakash isDr. Judas
Dr. Judas
Selva isThirisangu
Thirisangu
G. Marimuthu isEsakki Muthu
Esakki Muthu

Similar titles

Pulimurugan (2016)
Law Point
In the House (2012)
Style
Evaru (2019)
12 (2007)
The Good, The Bad, The Weird (2008)
The Lord of the Rings: The Two Towers (2002)
Naanum Rowdydhaan (2015)
Drishyam 2 (2021)
City of God (2002)
Audition (1999)
CinemaKottaga