Zack Snyder’s Justice League (2021)

Zack Snyder’s Justice League (2021)

United StatesR
Your rating: 0
10 3 votes

Synopsis

Zack Snyder’s definitive director’s cut of Justice League. Determined to ensure Superman’s ultimate sacrifice was not in vain, Bruce Wayne aligns forces with Diana Prince with plans to recruit a team of metahumans to protect the world from an approaching threat of catastrophic proportions.

Zack Snyder’s Justice League.2021.UHD.Open-Matte-BluRay.1080p.x265.HDR10.PQ.DTS 2.0 (450 Kbps).Yautja(7.17 GB)

Source …: 4K

General  Unique ID                   : 314505938009361945329919616979681913540 (0xEC9BA3EF498490344D9950F6E87FAAC4)  Complete name               : F:\Zack Snyder's Justice League.2021.UHD.Open-Matte-BluRay.x265.HDR10.PQ.DTS 2.0 (450 Kbps).Yautja.mkv  Format                      : Matroska  Format version              : Version 4  File size                   :   7.17 GiB  Duration                    :   4 h 2 min  Overall bit rate            :   4237 kb/s  Movie name                  :   Zack Snyder's Justice League.2021.UHD.Open-Matte-BluRay.x265.HDR10.PQ.DTS 2.0 (450 Kbps).Yautja  Encoded date                :   UTC 2021-09-08 08:35:06  Writing application         : mkvmerge v56.1.0 ('My Friend') 64-bit  Writing library             : libebml v1.4.2 + libmatroska v1.6.4  Cover                       : Yes  Attachments                 : cover.jpg  Encoded By                  :   Yautja | CinemaKottaga    Video  ID                          : 1  Format                      : HEVC  Format/Info                 :   High Efficiency Video Coding  Format profile              :   Main 10@L5.1@High  HDR format                  :   SMPTE ST 2086, HDR10 compatible  Codec ID                    : V_MPEGH/ISO/HEVC  Duration                    :   4 h 2 min  Bit rate                    :   3776 kb/s  Width                       :   1920 pixels  Height                      :   1080 pixels  Display aspect ratio        :   16:9  Frame rate mode             : Constant  Frame rate                  :   23.976 (24000/1001) FPS  Color space                 : YUV  Chroma subsampling          : 4:2:0 (Type 2)  Bit depth                   :   10 bits  Bits/(Pixel*Frame)          : 0.076  Stream size                 :   6.39 GiB (89%)  Writing library             :   x265 3.5+10+13-7c9bc0cb14:[Windows][GCC 10.2.0][64 bit] 10bit  Encoding settings           : cpuid=1111039 / frame-threads=2 / numa-pools=4 / wpp / no-pmode / no-pme / no-psnr / no-ssim / log-level=2 / input-csp=1 / input-res=1920x1080 / interlace=0 / total-frames=348495 / level-idc=51 / high-tier=1 / uhd-bd=1 / ref=3 / no-allow-non-conformance / repeat-headers / annexb / aud / no-eob / no-eos / hrd / info / hash=0 / no-temporal-layers / no-open-gop / min-keyint=1 / keyint=24 / gop-lookahead=0 / bframes=4 / b-adapt=2 / b-pyramid / bframe-bias=0 / rc-lookahead=20 / lookahead-slices=6 / scenecut=40 / hist-scenecut=0 / radl=0 / no-splice / no-intra-refresh / ctu=64 / min-cu-size=8 / no-rect / no-amp / max-tu-size=32 / tu-inter-depth=1 / tu-intra-depth=1 / limit-tu=0 / rdoq-level=0 / dynamic-rd=0.00 / no-ssim-rd / signhide / no-tskip / nr-intra=0 / nr-inter=0 / no-constrained-intra / strong-intra-smoothing / max-merge=3 / limit-refs=3 / no-limit-modes / me=1 / subme=2 / merange=57 / temporal-mvp / no-frame-dup / no-hme / weightp / no-weightb / no-analyze-src-pics / deblock=0:0 / sao / no-sao-non-deblock / rd=3 / selective-sao=4 / early-skip / rskip / no-fast-intra / no-tskip-fast / no-cu-lossless / b-intra / no-splitrd-skip / rdpenalty=0 / psy-rd=2.00 / psy-rdoq=0.00 / no-rd-refine / no-lossless / cbqpoffs=0 / crqpoffs=0 / rc=crf / crf=18.0 / qcomp=0.60 / qpstep=4 / stats-write=0 / stats-read=0 / vbv-maxrate=160000 / vbv-bufsize=160000 / vbv-init=0.9 / min-vbv-fullness=50.0 / max-vbv-fullness=80.0 / crf-max=0.0 / crf-min=0.0 / ipratio=1.40 / pbratio=1.30 / aq-mode=2 / aq-strength=1.00 / cutree / zone-count=0 / no-strict-cbr / qg-size=32 / no-rc-grain / qpmax=69 / qpmin=0 / no-const-vbv / sar=1 / overscan=0 / videoformat=5 / range=0 / colorprim=9 / transfer=16 / colormatrix=9 / chromaloc=1 / chromaloc-top=2 / chromaloc-bottom=2 / display-window=0 / master-display=G(13250,34500)B(7500,3000)R(34000,16000)WP(15635,16450)L(10000000,1) / cll=597,122 / min-luma=0 / max-luma=1023 / log2-max-poc-lsb=8 / vui-timing-info / vui-hrd-info / slices=1 / no-opt-qp-pps / no-opt-ref-list-length-pps / no-multi-pass-opt-rps / scenecut-bias=0.05 / hist-threshold=0.03 / no-opt-cu-delta-qp / no-aq-motion / hdr10 / no-hdr10-opt / no-dhdr10-opt / no-idr-recovery-sei / analysis-reuse-level=0 / analysis-save-reuse-level=0 / analysis-load-reuse-level=0 / scale-factor=0 / refine-intra=0 / refine-inter=0 / refine-mv=1 / refine-ctu-distortion=0 / no-limit-sao / ctu-info=0 / no-lowpass-dct / refine-analysis-type=0 / copy-pic=1 / max-ausize-factor=1.0 / no-dynamic-refine / no-single-sei / no-hevc-aq / no-svt / no-field / qp-adaptation-range=1.00 / scenecut-aware-qp=0 / conformance-window-right-offset=0 / conformance-window-bottom-offset=0 / decoder-max-rate=0 / no-vbv-live-multi-pass  Default                     : Yes  Forced                      : No  Color range                 : Limited  Color primaries             : BT.2020  Transfer characteristics    : PQ  Matrix coefficients         : BT.2020 non-constant  Mastering display color pri : Display P3  Mastering display luminance : min: 0.0001 cd/m2, max: 1000 cd/m2  Maximum Content Light Level : 597 cd/m2  Maximum Frame-Average Light : 122 cd/m2    Audio  ID                          : 2  Format                      : DTS  Format/Info                 : Digital Theater Systems  Codec ID                    : A_DTS  Duration                    :   4 h 2 min  Bit rate mode               : Constant  Bit rate                    :   450 kb/s  Channel(s)                  : 2 channels  Channel layout              : L R  Sampling rate               : 48.0 kHz  Frame rate                  : 93.750 FPS (512 SPF)  Bit depth                   :   16 bits  Compression mode            : Lossy  Stream size                 :   780 MiB (11%)  Title                       :   DTS 2.0 450 Kbps  Language                    : English  Default                     : Yes  Forced                      : No    Text  ID                          : 3  Format                      : PGS  Muxing mode                 :   zlib  Codec ID                    : S_HDMV/PGS  Codec ID/Info               : Picture based subtitle format used on BDs/HD-DVDs  Duration                    :   4 h 0 min  Bit rate                    :   25.8 kb/s  Count of elements           :   5558  Stream size                 :   44.3 MiB (1%)  Title                       : eng  Language                    : English  Default                     : Yes  Forced                      : No

Zack.Snyder’s.Justice.League.2021.Open-Matte-BluRay.1080p.x265.10bit.AC3 2.0.Yautja (2.63 GB)

General
Unique ID : 244415224590703905938748126291915804108 (0xB7E0A8F520704A2F44F94A033BCD8DCC)
Complete name : G:\Zack.Snyder’s.Justice.League.2021.Open-Matte-BluRay.1080p.x265.10bit.AC3 2.0 (224 Kbps).Yautja.mkv
Format : Matroska
Format version : Version 4
File size : 2.63 GiB
Duration : 4 h 2 min
Overall bit rate : 1 553 kb/s
Movie name : Zack.Snyder’s.Justice.League.2021.Open-Matte-BluRay.1080p.x265.10bit.AC3 2.0 (224 Kbps).Yautja
Encoded date : UTC 2021-09-11 20:58:20
Writing application : mkvmerge v56.1.0 (‘My Friend’) 64-bit
Writing library : libebml v1.4.2 + libmatroska v1.6.4
Cover : Yes
Attachments : cover.jpg
Encoded By : Yautja | CinemaKottaga

Video
ID : 1
Format : HEVC
Format/Info : High Efficiency Video Coding
Format profile : Main 10@L4@Main
Codec ID : V_MPEGH/ISO/HEVC
Duration : 4 h 2 min
Bit rate : 1 319 kb/s
Width : 1 920 pixels
Height : 1 080 pixels
Display aspect ratio : 16:9
Frame rate mode : Constant
Frame rate : 23.976 (24000/1001) FPS
Color space : YUV
Chroma subsampling : 4:2:0
Bit depth : 10 bits
Bits/(Pixel*Frame) : 0.027
Stream size : 2.23 GiB (85%)
Writing library : x265 3.5+9-bf91444e0:[Windows][GCC 10.2.0][64 bit] 10bit
Encoding settings : cpuid=1111039 / frame-threads=2 / numa-pools=4 / wpp / no-pmode / no-pme / no-psnr / no-ssim / log-level=2 / input-csp=1 / input-res=1920×1080 / interlace=0 / total-frames=0 / level-idc=0 / high-tier=1 / uhd-bd=0 / ref=3 / no-allow-non-conformance / repeat-headers / annexb / no-aud / no-eob / no-eos / no-hrd / info / hash=0 / no-temporal-layers / open-gop / min-keyint=23 / keyint=250 / gop-lookahead=0 / bframes=4 / b-adapt=2 / b-pyramid / bframe-bias=0 / rc-lookahead=20 / lookahead-slices=6 / scenecut=40 / hist-scenecut=0 / radl=0 / no-splice / no-intra-refresh / ctu=64 / min-cu-size=8 / no-rect / no-amp / max-tu-size=32 / tu-inter-depth=1 / tu-intra-depth=1 / limit-tu=0 / rdoq-level=0 / dynamic-rd=0.00 / no-ssim-rd / signhide / no-tskip / nr-intra=0 / nr-inter=0 / no-constrained-intra / strong-intra-smoothing / max-merge=3 / limit-refs=1 / no-limit-modes / me=1 / subme=2 / merange=57 / temporal-mvp / no-frame-dup / no-hme / weightp / no-weightb / no-analyze-src-pics / deblock=0:0 / sao / no-sao-non-deblock / rd=3 / selective-sao=4 / early-skip / rskip / no-fast-intra / no-tskip-fast / no-cu-lossless / b-intra / no-splitrd-skip / rdpenalty=0 / psy-rd=2.00 / psy-rdoq=0.00 / no-rd-refine / no-lossless / cbqpoffs=0 / crqpoffs=0 / rc=crf / crf=28.0 / qcomp=0.60 / qpstep=4 / stats-write=0 / stats-read=0 / ipratio=1.40 / pbratio=1.30 / aq-mode=2 / aq-strength=1.00 / cutree / zone-count=0 / no-strict-cbr / qg-size=32 / no-rc-grain / qpmax=69 / qpmin=0 / no-const-vbv / sar=0 / overscan=0 / videoformat=5 / range=0 / colorprim=2 / transfer=2 / colormatrix=2 / chromaloc=0 / display-window=0 / cll=0,0 / min-luma=0 / max-luma=1023 / log2-max-poc-lsb=8 / vui-timing-info / vui-hrd-info / slices=1 / no-opt-qp-pps / no-opt-ref-list-length-pps / no-multi-pass-opt-rps / scenecut-bias=0.05 / hist-threshold=0.03 / no-opt-cu-delta-qp / no-aq-motion / no-hdr10 / no-hdr10-opt / no-dhdr10-opt / no-idr-recovery-sei / analysis-reuse-level=0 / analysis-save-reuse-level=0 / analysis-load-reuse-level=0 / scale-factor=0 / refine-intra=0 / refine-inter=0 / refine-mv=1 / refine-ctu-distortion=0 / no-limit-sao / ctu-info=0 / no-lowpass-dct / refine-analysis-type=0 / copy-pic=1 / max-ausize-factor=1.0 / no-dynamic-refine / no-single-sei / no-hevc-aq / no-svt / no-field / qp-adaptation-range=1.00 / scenecut-aware-qp=0conformance-window-offsets / right=0 / bottom=0 / decoder-max-rate=0 / no-vbv-live-multi-pass
Default : Yes
Forced : No
Color range : Limited

Audio
ID : 2
Format : AC-3
Format/Info : Audio Coding 3
Commercial name : Dolby Digital
Codec ID : A_AC3
Duration : 4 h 2 min
Bit rate mode : Constant
Bit rate : 224 kb/s
Channel(s) : 2 channels
Channel layout : L R
Sampling rate : 48.0 kHz
Frame rate : 31.250 FPS (1536 SPF)
Compression mode : Lossy
Stream size : 388 MiB (14%)
Title : AC3 2.0 224 Kbps
Language : English
Service kind : Complete Main
Default : Yes
Forced : No

Text
ID : 3
Format : PGS
Muxing mode : zlib
Codec ID : S_HDMV/PGS
Codec ID/Info : Picture based subtitle format used on BDs/HD-DVDs
Duration : 4 h 0 min
Bit rate : 25.8 kb/s
Count of elements : 5558
Stream size : 44.3 MiB (2%)
Title : eng
Language : English
Default : Yes
Forced : No

Zack.Snyder’s.Justice.League.2021.Open-Matte-BluRay.720p.x265.10bit.Opus 2.0.Yautja (1.36 GB)

General
Unique ID : 267774849212200392602888273017718199685 (0xC9738F5F1E8A8A76600EF8EF22D05585)
Complete name : G:\Zack.Snyder’s.Justice.League.2021.Open-Matte-BluRay.720p.x265.10bit.Opus 2.0 (120 Kbps).Yautja.mkv
Format : Matroska
Format version : Version 4
File size : 1.36 GiB
Duration : 4 h 2 min
Overall bit rate : 804 kb/s
Movie name : Zack.Snyder’s.Justice.League.2021.Open-Matte-BluRay.720p.x265.10bit.Opus 2.0.Yautja
Encoded date : UTC 2021-09-14 14:24:21
Writing application : mkvmerge v56.1.0 (‘My Friend’) 64-bit
Writing library : libebml v1.4.2 + libmatroska v1.6.4
Cover : Yes
Attachments : cover.jpg
Encoded By : Yautja | CinemaKottaga

Video
ID : 1
Format : HEVC
Format/Info : High Efficiency Video Coding
Format profile : Main 10@L3.1@Main
Codec ID : V_MPEGH/ISO/HEVC
Duration : 4 h 2 min
Bit rate : 674 kb/s
Width : 1 280 pixels
Height : 720 pixels
Display aspect ratio : 16:9
Frame rate mode : Constant
Frame rate : 23.976 (24000/1001) FPS
Color space : YUV
Chroma subsampling : 4:2:0
Bit depth : 10 bits
Bits/(Pixel*Frame) : 0.030
Stream size : 1.14 GiB (84%)
Writing library : x265 3.5+9-bf91444e0:[Windows][GCC 10.2.0][64 bit] 10bit
Encoding settings : cpuid=1111039 / frame-threads=2 / numa-pools=4 / wpp / no-pmode / no-pme / no-psnr / no-ssim / log-level=2 / input-csp=1 / input-res=1280×720 / interlace=0 / total-frames=0 / level-idc=0 / high-tier=1 / uhd-bd=0 / ref=3 / no-allow-non-conformance / repeat-headers / annexb / no-aud / no-eob / no-eos / no-hrd / info / hash=0 / no-temporal-layers / open-gop / min-keyint=23 / keyint=250 / gop-lookahead=0 / bframes=4 / b-adapt=2 / b-pyramid / bframe-bias=0 / rc-lookahead=20 / lookahead-slices=4 / scenecut=40 / hist-scenecut=0 / radl=0 / no-splice / no-intra-refresh / ctu=64 / min-cu-size=8 / no-rect / no-amp / max-tu-size=32 / tu-inter-depth=1 / tu-intra-depth=1 / limit-tu=0 / rdoq-level=0 / dynamic-rd=0.00 / no-ssim-rd / signhide / no-tskip / nr-intra=0 / nr-inter=0 / no-constrained-intra / strong-intra-smoothing / max-merge=3 / limit-refs=1 / no-limit-modes / me=1 / subme=2 / merange=57 / temporal-mvp / no-frame-dup / no-hme / weightp / no-weightb / no-analyze-src-pics / deblock=0:0 / sao / no-sao-non-deblock / rd=3 / selective-sao=4 / early-skip / rskip / no-fast-intra / no-tskip-fast / no-cu-lossless / b-intra / no-splitrd-skip / rdpenalty=0 / psy-rd=2.00 / psy-rdoq=0.00 / no-rd-refine / no-lossless / cbqpoffs=0 / crqpoffs=0 / rc=crf / crf=28.0 / qcomp=0.60 / qpstep=4 / stats-write=0 / stats-read=0 / ipratio=1.40 / pbratio=1.30 / aq-mode=2 / aq-strength=1.00 / cutree / zone-count=0 / no-strict-cbr / qg-size=32 / no-rc-grain / qpmax=69 / qpmin=0 / no-const-vbv / sar=0 / overscan=0 / videoformat=5 / range=0 / colorprim=2 / transfer=2 / colormatrix=2 / chromaloc=0 / display-window=0 / cll=0,0 / min-luma=0 / max-luma=1023 / log2-max-poc-lsb=8 / vui-timing-info / vui-hrd-info / slices=1 / no-opt-qp-pps / no-opt-ref-list-length-pps / no-multi-pass-opt-rps / scenecut-bias=0.05 / hist-threshold=0.03 / no-opt-cu-delta-qp / no-aq-motion / no-hdr10 / no-hdr10-opt / no-dhdr10-opt / no-idr-recovery-sei / analysis-reuse-level=0 / analysis-save-reuse-level=0 / analysis-load-reuse-level=0 / scale-factor=0 / refine-intra=0 / refine-inter=0 / refine-mv=1 / refine-ctu-distortion=0 / no-limit-sao / ctu-info=0 / no-lowpass-dct / refine-analysis-type=0 / copy-pic=1 / max-ausize-factor=1.0 / no-dynamic-refine / no-single-sei / no-hevc-aq / no-svt / no-field / qp-adaptation-range=1.00 / scenecut-aware-qp=0conformance-window-offsets / right=0 / bottom=0 / decoder-max-rate=0 / no-vbv-live-multi-pass
Default : Yes
Forced : No
Color range : Limited

Audio
ID : 2
Format : Opus
Codec ID : A_OPUS
Duration : 4 h 2 min
Bit rate : 120 kb/s
Channel(s) : 2 channels
Channel layout : L R
Sampling rate : 48.0 kHz
Frame rate : 50.000 FPS (960 SPF)
Compression mode : Lossy
Stream size : 208 MiB (15%)
Title : Opus 2.0 120 Kbps
Writing library : Lavc59.1.100 libopus
Language : English
Default : Yes
Forced : No

Text
ID : 3
Format : PGS
Muxing mode : zlib
Codec ID : S_HDMV/PGS
Codec ID/Info : Picture based subtitle format used on BDs/HD-DVDs
Duration : 4 h 0 min
Bit rate : 25.8 kb/s
Count of elements : 5558
Stream size : 44.3 MiB (3%)
Title : eng
Language : English
Default : Yes
Forced : No

External Audio File

Opus 7.1 Surround 1000 Kbps (1.70 GB)

General

Complete name :
English.Opus.7.1..1000.Kbps..opus
Format :
Ogg
File size :
1.70 GiB
Audio
ID :
2087220675 (0x7C6875C3)
Format :
Opus
Channel(s) :
8 channels
Channel layout :
L R C Ls Rs Lb Rb LFE
Sampling rate :
48.0 kHz
Compression mode :
Lossy
Writing library :
unknown encoder; extracted from Matroska with mkvextract v56.1.0 (‘My Friend’) 64-bit

Note : External Audio File Works On Both HDR and SDR Versions.

Zack Snyder’s Justice League (2021) 1080p 10bit BluRay 8CH x265 HSB (2.63 GB)

Duration : 4h 2min

Source : Justice.League.Snyders.Cut.2021.1080p.BluRay.REMUX.AVC.DTS-HD.MA.TrueHD.Atmos.7.1-FGT

Video Format : HEVC

Format/Info : High Efficiency Video Coding

Width : 1440 pixels

Height : 1080 pixels

Bit depth : 10bit

Audio Format : AAC LC SBR

Format/Info : HE AAC

Channel(s) : 8 channels

Language : English

Text Format : PGS

Language : English

Zack Snyder’s Justice League (2021) 720p 10bit BluRay 2CH x265 HSB (1.54 GB)

Duration : 4h 2min

Source : Justice.League.Snyders.Cut.2021.1080p.BluRay.REMUX.AVC.DTS-HD.MA.TrueHD.Atmos.7.1-FGT

Video Format : HEVC

Format/Info : High Efficiency Video Coding

Width : 1280 pixels

Height : 960 pixels

Bit depth : 10bit

Audio Format : AAC LC SBR

Format/Info : HE AAC

Channel(s) : 2 channels

Language : English

Text Format : PGS

Language : English

Zack Snyder’s Justice League (2021) Extras 720p 10bit BluRay 2CH x265 HSB (149 MB)

Duration : 24min

Source : Zack.Snyders.Justice.League.2021.Extras.1080p.BluRay.REMUX.AVC.DD.2.0-Hoyts

Video Format : HEVC

Format/Info : High Efficiency Video Coding

Width : 1280 pixels

Height : 720 pixels

Bit depth : 10bit

Audio Format : AAC LC SBR

Format/Info : HE AAC

Channel(s) : 2 channels

Language : English

Text Format : PGS

Language : English

Zack Snyders Justice League (2021) 1080p HMAX WEB-DL HEVC 10bit HDR DDP 5.1. Atmos PoOlLa (4.1 GB)

Download Zack Snyder’s Justice League (2021)

General
Format : Matroska
Format version : Version 4
File size : 4.13 GiB
Duration : 4 h 2 min
Overall bit rate : 2 442 kb/s
Movie name : Zack Snyder’s Justice League 1080p HDR Encoded By PoOlLa | cinemakottaga.ml
Writing application : ShanaEncoder
Writing library : ShanaEncoder
ErrorDetectionType : Per level 1

Video
ID : 1
Format : HEVC
Format/Info : High Efficiency Video Coding
Format profile : Main 10@L4@Main
HDR format : SMPTE ST 2086, HDR10 compatible
Codec ID : V_MPEGH/ISO/HEVC
Duration : 4 h 2 min
Bit rate : 1 625 kb/s
Width : 1 440 pixels
Height : 1 080 pixels
Display aspect ratio : 4:3
Frame rate mode : Constant
Frame rate : 23.976 (24000/1001) FPS
Color space : YUV
Chroma subsampling : 4:2:0 (Type 1)
Bit depth : 10 bits
Bits/(Pixel*Frame) : 0.044
Stream size : 2.75 GiB (67%)
Writing library : x265 3.4+12-geff904199:[Windows][GCC 5.4.0][64 bit] 10bit
Default : Yes
Forced : No
Color range : Limited
Color primaries : BT.2020
Transfer characteristics : PQ
Matrix coefficients : BT.2020 non-constant
Mastering display color pri : Display P3
Mastering display luminance : min: 0.0001 cd/m2, max: 1000 cd/m2
Maximum Content Light Level : 597 cd/m2
Maximum Frame-Average Light : 122 cd/m2

Audio
ID : 2
Format : E-AC-3 JOC
Format/Info : Enhanced AC-3 with Joint Object Coding
Commercial name : Dolby Digital Plus with Dolby Atmos
Codec ID : A_EAC3
Duration : 4 h 2 min
Bit rate mode : Constant
Bit rate : 768 kb/s
Channel(s) : 6 channels
Channel layout : L R C LFE Ls Rs
Sampling rate : 48.0 kHz
Frame rate : 31.250 FPS (1536 SPF)
Bit depth : 32 bits
Compression mode : Lossy
Stream size : 1.30 GiB (31%)
Service kind : Complete Main
Default : Yes
Forced : No
Complexity index : 16
Number of dynamic objects : 15
Bed channel count : 1 channel
Bed channel configuration : LFE

Text
ID : 3
Format : ASS
Codec ID : S_TEXT/ASS
Codec ID/Info : Advanced Sub Station Alpha
Duration : 4 h 1 min
Compression mode : Lossless
Default : Yes
Forced : No

Zack Snyders Justice League (2021) 1080p AMZN WEB-DL HEVC 10bit DDP 5.1 Atmos PoOlLa (4.1 Gb)

Download Zack Snyder’s Justice League (2021)

General
Format : Matroska
Format version : Version 4
File size : 4.13 GiB
Duration : 4 h 2 min
Overall bit rate : 2 445 kb/s
Encoded date : UTC 2021-03-20 17:38:05
Writing application : mkvmerge v53.0.0 (‘Fool’s Gold’) 64-bit
Writing library : libebml v1.4.1 + libmatroska v1.6.2 / ShanaEncoder

Video
ID : 1
Format : HEVC
Format/Info : High Efficiency Video Coding
Format profile : Main 10@L4@Main
Codec ID : V_MPEGH/ISO/HEVC
Duration : 4 h 2 min
Bit rate : 1 675 kb/s
Width : 1 440 pixels
Height : 1 080 pixels
Display aspect ratio : 4:3
Frame rate mode : Constant
Frame rate : 23.976 (24000/1001) FPS
Color space : YUV
Chroma subsampling : 4:2:0
Bit depth : 10 bits
Bits/(Pixel*Frame) : 0.045
Stream size : 2.83 GiB (69%)
Default : Yes
Forced : No
Color range : Limited
Color primaries : BT.709
Transfer characteristics : BT.709
Matrix coefficients : BT.709

Audio
ID : 2
Format : E-AC-3 JOC
Format/Info : Enhanced AC-3 with Joint Object Coding
Commercial name : Dolby Digital Plus with Dolby Atmos
Codec ID : A_EAC3
Duration : 4 h 2 min
Bit rate mode : Constant
Bit rate : 768 kb/s
Channel(s) : 6 channels
Channel layout : L R C LFE Ls Rs
Sampling rate : 48.0 kHz
Frame rate : 31.250 FPS (1536 SPF)
Compression mode : Lossy
Stream size : 1.30 GiB (31%)
Title : English
Language : English
Service kind : Complete Main
Default : Yes
Forced : No
Complexity index : 16
Number of dynamic objects : 15
Bed channel count : 1 channel
Bed channel configuration : LFE

Text
ID : 3
Format : ASS
Codec ID : S_TEXT/ASS
Codec ID/Info : Advanced Sub Station Alpha
Duration : 4 h 0 min
Bit rate : 75 b/s
Count of elements : 2799
Compression mode : Lossless
Stream size : 133 KiB (0%)
Language : English
Default : Yes
Forced : No

Zack Snyders Justice League (2021) 1080p AMZN WEB-DL HEVC 10bit AAC 5.1 PoOlLa (3.5 GB)

Download Zack Snyder’s Justice League (2021)

General
Format : Matroska
Format version : Version 4
File size : 3.49 GiB
Duration : 4 h 2 min
Overall bit rate : 2 063 kb/s
Writing application : ShanaEncoder
Writing library : ShanaEncoder
ErrorDetectionType : Per level 1

Video
ID : 1
Format : HEVC
Format/Info : High Efficiency Video Coding
Format profile : Main 10@L4@Main
Codec ID : V_MPEGH/ISO/HEVC
Duration : 4 h 2 min
Width : 1 440 pixels
Height : 1 080 pixels
Display aspect ratio : 4:3
Frame rate mode : Constant
Frame rate : 23.976 (24000/1001) FPS
Color space : YUV
Chroma subsampling : 4:2:0
Bit depth : 10 bits
Default : Yes
Forced : No
Color range : Limited
Color primaries : BT.709
Transfer characteristics : BT.709
Matrix coefficients : BT.709

Audio
ID : 2
Format : AAC LC
Format/Info : Advanced Audio Codec Low Complexity
Codec ID : A_AAC-2
Duration : 4 h 2 min
Channel(s) : 6 channels
Channel layout : C L R Ls Rs LFE
Sampling rate : 48.0 kHz
Frame rate : 46.875 FPS (1024 SPF)
Compression mode : Lossy
Default : Yes
Forced : No

Text
ID : 3
Format : ASS
Codec ID : S_TEXT/ASS
Codec ID/Info : Advanced Sub Station Alpha
Duration : 4 h 1 min
Compression mode : Lossless
Default : Yes
Forced : No

Zack Snyders Justice League (2021) 1080p HMAX WEB-DL 6CH HEVC MPEG7 (3.1GB)

Source …: Zack.Snyders.Justice.League.2021.1080p.HMAX.WEB-DL.DDP5.1.H.264-KamiKaze

Format : Matroska
Format version : Version 4
File size : 3.10 GiB
Duration : 4 h 2 min
Overall bit rate : 1 829 kb/s
Movie name : MPEG7 | Zack.Snyders.JL.2021.1080p.HMAX.WEB-DL.x265.6CH.HEVC-MPEG7 – www.cinemakottaga.ml
Encoded date : UTC 2021-03-19 17:49:26
Writing application : mkvmerge v54.0.0 (‘F Maj Pixie’) 64-bit
Writing library : libebml v1.4.2 + libmatroska v1.6.3
Cover : Yes
Attachments : cover.jpg

Video
ID : 1
Format : HEVC
Format/Info : High Efficiency Video Coding
Format profile : Main@L4@Main
Codec ID : V_MPEGH/ISO/HEVC
Duration : 4 h 2 min
Bit rate : 1 588 kb/s
Width : 1 440 pixels
Height : 1 080 pixels
Display aspect ratio : 4:3
Frame rate mode : Variable
Frame rate : 23.976 FPS
Color space : YUV
Chroma subsampling : 4:2:0
Bit depth : 8 bits
Bits/(Pixel*Frame) : 0.043
Stream size : 2.69 GiB (87%)
Title : MPEG7 | www.cinemakottaga.ml
Default : Yes
Forced : No
Color range : Limited
Color primaries : BT.709
Transfer characteristics : BT.709
Matrix coefficients : BT.709

Audio
ID : 2
Format : AAC LC
Format/Info : Advanced Audio Codec Low Complexity
Codec ID : A_AAC-2
Duration : 4 h 2 min
Bit rate : 240 kb/s
Channel(s) : 6 channels
Channel layout : L R C Cb Lb Rb
Sampling rate : 48.0 kHz
Frame rate : 46.875 FPS (1024 SPF)
Compression mode : Lossy
Stream size : 415 MiB (13%)
Title : MPEG7 | www.cinemakottaga.ml
Language : English
Default : Yes
Forced : No

Text
ID : 3
Format : UTF-8
Codec ID : S_TEXT/UTF8
Codec ID/Info : UTF-8 Plain Text
Duration : 4 h 2 min
Bit rate : 39 b/s
Count of elements : 2786
Stream size : 70.2 KiB (0%)
Title : MPEG7 | www.cinemakottaga.ml
Language : English
Default : Yes
Forced : No

 

Download

Password – f**kbots

Zack Snyders Justice League (2021) 720p 10bit HMAX WEB-DL 2CH HEVC MPEG7 (1.2GB)

Source …: Zack.Snyders.Justice.League.2021.1080p.HMAX.WEB-DL.DDP5.1.H.264-KamiKaze

Format : Matroska
Format version : Version 4
File size : 1.19 GiB
Duration : 4 h 2 min
Overall bit rate : 702 kb/s
Movie name : MPEG7 | Zack.Snyders.JL.2021.720p.10bit.HMAX.WEB-DL.HEVC-MPEG7 | www.cinemakottaga.ml
Encoded date : UTC 2021-03-18 19:19:34
Writing application : mkvmerge v54.0.0 (‘F Maj Pixie’) 64-bit
Writing library : libebml v1.4.2 + libmatroska v1.6.3
Cover : Yes
Attachments : cover.jpg

Video
ID : 1
Format : HEVC
Format/Info : High Efficiency Video Coding
Format profile : Main 10@L3.1@Main
Codec ID : V_MPEGH/ISO/HEVC
Duration : 4 h 2 min
Bit rate : 631 kb/s
Width : 968 pixels
Height : 720 pixels
Display aspect ratio : 4:3
Frame rate mode : Constant
Frame rate : 23.976 (24000/1001) FPS
Color space : YUV
Chroma subsampling : 4:2:0
Bit depth : 10 bits
Bits/(Pixel*Frame) : 0.038
Stream size : 1.07 GiB (90%)
Title : MPEG7 | www.cinemakottaga.ml
Default : Yes
Forced : No
Color range : Limited
Color primaries : BT.709
Transfer characteristics : BT.709
Matrix coefficients : BT.709

Audio
ID : 2
Format : AAC LC SBR
Format/Info : Advanced Audio Codec Low Complexity with Spectral Band Replication
Commercial name : HE-AAC
Format settings : NBC
Codec ID : A_AAC-5
Duration : 4 h 2 min
Bit rate : 70.0 kb/s
Channel(s) : 2 channels
Channel layout : L R
Sampling rate : 48.0 kHz
Frame rate : 23.438 FPS (2048 SPF)
Compression mode : Lossy
Stream size : 121 MiB (10%)
Title : MPEG7 | www.cinemakottaga.ml
Language : English
Default : Yes
Forced : No

Text
ID : 3
Format : UTF-8
Codec ID : S_TEXT/UTF8
Codec ID/Info : UTF-8 Plain Text
Duration : 4 h 2 min
Bit rate : 39 b/s
Count of elements : 2786
Stream size : 70.2 KiB (0%)
Title : MPEG7 | www.cinemakottaga.ml
Language : English
Default : Yes
Forced : No

 

Download

Password – f**kbots

Zack Snyders Justice League (2021) 720p HMAX WEB-DL 2CH HEVC MPEG7 (935MB)

Source …: Zack.Snyders.Justice.League.2021.1080p.HMAX.WEB-DL.DDP5.1.H.264-KamiKaze

Format : Matroska
Format version : Version 4
File size : 935 MiB
Duration : 4 h 2 min
Overall bit rate : 539 kb/s
Movie name : MPEG7 | Zack.Snyders.JL.2021.720p.HMAX.WEB-DL.HEVC-MPEG7 | www.cinemakottaga.ml
Encoded date : UTC 2021-03-18 19:23:41
Writing application : mkvmerge v54.0.0 (‘F Maj Pixie’) 64-bit
Writing library : libebml v1.4.2 + libmatroska v1.6.3
Cover : Yes
Attachments : cover.jpg

Video
ID : 1
Format : HEVC
Format/Info : High Efficiency Video Coding
Format profile : Main@L3.1@Main
Codec ID : V_MPEGH/ISO/HEVC
Duration : 4 h 2 min
Bit rate : 478 kb/s
Width : 960 pixels
Height : 720 pixels
Display aspect ratio : 4:3
Frame rate mode : Variable
Frame rate : 23.976 FPS
Color space : YUV
Chroma subsampling : 4:2:0
Bit depth : 8 bits
Bits/(Pixel*Frame) : 0.029
Stream size : 827 MiB (88%)
Title : MPEG7 | www.cinemakottaga.ml
Default : Yes
Forced : No
Color range : Limited
Color primaries : BT.709
Transfer characteristics : BT.709
Matrix coefficients : BT.709

Audio
ID : 2
Format : AAC LC SBR
Format/Info : Advanced Audio Codec Low Complexity with Spectral Band Replication
Commercial name : HE-AAC
Format settings : NBC
Codec ID : A_AAC-5
Duration : 4 h 2 min
Bit rate : 60.0 kb/s
Channel(s) : 2 channels
Channel layout : L R
Sampling rate : 48.0 kHz
Frame rate : 23.438 FPS (2048 SPF)
Compression mode : Lossy
Stream size : 104 MiB (11%)
Title : MPEG7 | www.cinemakottaga.ml
Language : English
Default : Yes
Forced : No

Text
ID : 3
Format : UTF-8
Codec ID : S_TEXT/UTF8
Codec ID/Info : UTF-8 Plain Text
Duration : 4 h 2 min
Bit rate : 39 b/s
Count of elements : 2786
Stream size : 70.2 KiB (0%)
Title : MPEG7 | www.cinemakottaga.ml
Language : English
Default : Yes
Forced : No

 

Download

Password – f**kbots

 

Telegram  Download Guide  Donate

IMDb Rating 8.9 18,578 votes

Director

Director

Cast

Similar titles

Ayirathil Oruvan (2010)
Wolfwalkers (2020)
Pirates of the Caribbean: Dead Man’s Chest (2006)
The Head Hunter
Delicatessen
Neelakasham Pachakadal Chuvanna Bhoomi (2013)
Spider-Man (2002)
Odiyan
Seven Samurai (1954)
Siberia (2020)
Run Baby Run (2012)
The Hobbit: The Battle of the Five Armies (2014)
CinemaKottaga