Zack Snyder’s Justice League (2021)

Zack Snyder’s Justice League (2021)

United StatesR
Your rating: 0
10 3 votes

Synopsis

Zack Snyder’s definitive director’s cut of Justice League. Determined to ensure Superman’s ultimate sacrifice was not in vain, Bruce Wayne aligns forces with Diana Prince with plans to recruit a team of metahumans to protect the world from an approaching threat of catastrophic proportions.

Zack Snyder’s Justice League (2021) 1080p 10bit BluRay 8CH x265 HSB (2.63 GB)

Duration : 4h 2min

Source : Justice.League.Snyders.Cut.2021.1080p.BluRay.REMUX.AVC.DTS-HD.MA.TrueHD.Atmos.7.1-FGT

Video Format : HEVC

Format/Info : High Efficiency Video Coding

Width : 1440 pixels

Height : 1080 pixels

Bit depth : 10bit

Audio Format : AAC LC SBR

Format/Info : HE AAC

Channel(s) : 8 channels

Language : English

Text Format : PGS

Language : English

Zack Snyder’s Justice League (2021) 720p 10bit BluRay 2CH x265 HSB (1.54 GB)

Duration : 4h 2min

Source : Justice.League.Snyders.Cut.2021.1080p.BluRay.REMUX.AVC.DTS-HD.MA.TrueHD.Atmos.7.1-FGT

Video Format : HEVC

Format/Info : High Efficiency Video Coding

Width : 1280 pixels

Height : 960 pixels

Bit depth : 10bit

Audio Format : AAC LC SBR

Format/Info : HE AAC

Channel(s) : 2 channels

Language : English

Text Format : PGS

Language : English

Zack Snyder’s Justice League (2021) Extras 720p 10bit BluRay 2CH x265 HSB (149 MB)

Duration : 24min

Source : Zack.Snyders.Justice.League.2021.Extras.1080p.BluRay.REMUX.AVC.DD.2.0-Hoyts

Video Format : HEVC

Format/Info : High Efficiency Video Coding

Width : 1280 pixels

Height : 720 pixels

Bit depth : 10bit

Audio Format : AAC LC SBR

Format/Info : HE AAC

Channel(s) : 2 channels

Language : English

Text Format : PGS

Language : English

Zack Snyders Justice League (2021) 1080p HMAX WEB-DL HEVC 10bit HDR DDP 5.1. Atmos PoOlLa (4.1 GB)

Download Zack Snyder’s Justice League (2021)

General
Format : Matroska
Format version : Version 4
File size : 4.13 GiB
Duration : 4 h 2 min
Overall bit rate : 2 442 kb/s
Movie name : Zack Snyder’s Justice League 1080p HDR Encoded By PoOlLa | cinemakottaga.ml
Writing application : ShanaEncoder
Writing library : ShanaEncoder
ErrorDetectionType : Per level 1

Video
ID : 1
Format : HEVC
Format/Info : High Efficiency Video Coding
Format profile : Main [email protected]@Main
HDR format : SMPTE ST 2086, HDR10 compatible
Codec ID : V_MPEGH/ISO/HEVC
Duration : 4 h 2 min
Bit rate : 1 625 kb/s
Width : 1 440 pixels
Height : 1 080 pixels
Display aspect ratio : 4:3
Frame rate mode : Constant
Frame rate : 23.976 (24000/1001) FPS
Color space : YUV
Chroma subsampling : 4:2:0 (Type 1)
Bit depth : 10 bits
Bits/(Pixel*Frame) : 0.044
Stream size : 2.75 GiB (67%)
Writing library : x265 3.4+12-geff904199:[Windows][GCC 5.4.0][64 bit] 10bit
Default : Yes
Forced : No
Color range : Limited
Color primaries : BT.2020
Transfer characteristics : PQ
Matrix coefficients : BT.2020 non-constant
Mastering display color pri : Display P3
Mastering display luminance : min: 0.0001 cd/m2, max: 1000 cd/m2
Maximum Content Light Level : 597 cd/m2
Maximum Frame-Average Light : 122 cd/m2

Audio
ID : 2
Format : E-AC-3 JOC
Format/Info : Enhanced AC-3 with Joint Object Coding
Commercial name : Dolby Digital Plus with Dolby Atmos
Codec ID : A_EAC3
Duration : 4 h 2 min
Bit rate mode : Constant
Bit rate : 768 kb/s
Channel(s) : 6 channels
Channel layout : L R C LFE Ls Rs
Sampling rate : 48.0 kHz
Frame rate : 31.250 FPS (1536 SPF)
Bit depth : 32 bits
Compression mode : Lossy
Stream size : 1.30 GiB (31%)
Service kind : Complete Main
Default : Yes
Forced : No
Complexity index : 16
Number of dynamic objects : 15
Bed channel count : 1 channel
Bed channel configuration : LFE

Text
ID : 3
Format : ASS
Codec ID : S_TEXT/ASS
Codec ID/Info : Advanced Sub Station Alpha
Duration : 4 h 1 min
Compression mode : Lossless
Default : Yes
Forced : No

Zack Snyders Justice League (2021) 1080p AMZN WEB-DL HEVC 10bit DDP 5.1 Atmos PoOlLa (4.1 Gb)

Download Zack Snyder’s Justice League (2021)

General
Format : Matroska
Format version : Version 4
File size : 4.13 GiB
Duration : 4 h 2 min
Overall bit rate : 2 445 kb/s
Encoded date : UTC 2021-03-20 17:38:05
Writing application : mkvmerge v53.0.0 (‘Fool’s Gold’) 64-bit
Writing library : libebml v1.4.1 + libmatroska v1.6.2 / ShanaEncoder

Video
ID : 1
Format : HEVC
Format/Info : High Efficiency Video Coding
Format profile : Main [email protected]@Main
Codec ID : V_MPEGH/ISO/HEVC
Duration : 4 h 2 min
Bit rate : 1 675 kb/s
Width : 1 440 pixels
Height : 1 080 pixels
Display aspect ratio : 4:3
Frame rate mode : Constant
Frame rate : 23.976 (24000/1001) FPS
Color space : YUV
Chroma subsampling : 4:2:0
Bit depth : 10 bits
Bits/(Pixel*Frame) : 0.045
Stream size : 2.83 GiB (69%)
Default : Yes
Forced : No
Color range : Limited
Color primaries : BT.709
Transfer characteristics : BT.709
Matrix coefficients : BT.709

Audio
ID : 2
Format : E-AC-3 JOC
Format/Info : Enhanced AC-3 with Joint Object Coding
Commercial name : Dolby Digital Plus with Dolby Atmos
Codec ID : A_EAC3
Duration : 4 h 2 min
Bit rate mode : Constant
Bit rate : 768 kb/s
Channel(s) : 6 channels
Channel layout : L R C LFE Ls Rs
Sampling rate : 48.0 kHz
Frame rate : 31.250 FPS (1536 SPF)
Compression mode : Lossy
Stream size : 1.30 GiB (31%)
Title : English
Language : English
Service kind : Complete Main
Default : Yes
Forced : No
Complexity index : 16
Number of dynamic objects : 15
Bed channel count : 1 channel
Bed channel configuration : LFE

Text
ID : 3
Format : ASS
Codec ID : S_TEXT/ASS
Codec ID/Info : Advanced Sub Station Alpha
Duration : 4 h 0 min
Bit rate : 75 b/s
Count of elements : 2799
Compression mode : Lossless
Stream size : 133 KiB (0%)
Language : English
Default : Yes
Forced : No

Zack Snyders Justice League (2021) 1080p AMZN WEB-DL HEVC 10bit AAC 5.1 PoOlLa (3.5 GB)

Download Zack Snyder’s Justice League (2021)

General
Format : Matroska
Format version : Version 4
File size : 3.49 GiB
Duration : 4 h 2 min
Overall bit rate : 2 063 kb/s
Writing application : ShanaEncoder
Writing library : ShanaEncoder
ErrorDetectionType : Per level 1

Video
ID : 1
Format : HEVC
Format/Info : High Efficiency Video Coding
Format profile : Main [email protected]@Main
Codec ID : V_MPEGH/ISO/HEVC
Duration : 4 h 2 min
Width : 1 440 pixels
Height : 1 080 pixels
Display aspect ratio : 4:3
Frame rate mode : Constant
Frame rate : 23.976 (24000/1001) FPS
Color space : YUV
Chroma subsampling : 4:2:0
Bit depth : 10 bits
Default : Yes
Forced : No
Color range : Limited
Color primaries : BT.709
Transfer characteristics : BT.709
Matrix coefficients : BT.709

Audio
ID : 2
Format : AAC LC
Format/Info : Advanced Audio Codec Low Complexity
Codec ID : A_AAC-2
Duration : 4 h 2 min
Channel(s) : 6 channels
Channel layout : C L R Ls Rs LFE
Sampling rate : 48.0 kHz
Frame rate : 46.875 FPS (1024 SPF)
Compression mode : Lossy
Default : Yes
Forced : No

Text
ID : 3
Format : ASS
Codec ID : S_TEXT/ASS
Codec ID/Info : Advanced Sub Station Alpha
Duration : 4 h 1 min
Compression mode : Lossless
Default : Yes
Forced : No

Zack Snyders Justice League (2021) 1080p HMAX WEB-DL 6CH HEVC MPEG7 (3.1GB)

Duration : 4hr 2min

Source : Zack.Snyders.Justice.League.2021.1080p.HMAX.WEB-DL.DDP5.1.H.264-KamiKaze

Video Format : HEVC

Format/Info : High Efficiency Video Coding

Width : 1 440 pixels

Height :1080 pixels

Bit depth : 8bit

Audio Format : AAC

Format/Info : Advanced Audio Codec

Channel(s) : 6 channels

Language : English

Text Format : srt

Language : English

Zack Snyders Justice League (2021) 720p 10bit HMAX WEB-DL 2CH HEVC MPEG7 (1.2GB)

Duration : 4hr 2min

Source : Zack.Snyders.Justice.League.2021.1080p.HMAX.WEB-DL.DDP.5.1.Atmos.H.264-FLUX

Video Format : HEVC

Format/Info : High Efficiency Video Coding

Width : 968 pixels

Height : 720 pixels

Bit depth : 10bit

Audio Format : AAC

Format/Info : Advanced Audio Codec

Channel(s) : 2 channels

Language : English

Text Format : srt

Language : English

Zack Snyders Justice League (2021) 720p HMAX WEB-DL 2CH HEVC MPEG7 (935MB)

Duration : 4hr 2min

Source : Zack.Snyders.Justice.League.2021.1080p.HMAX.WEB-DL.DDP5.1.H.264-KamiKaze

Video Format : HEVC

Format/Info : High Efficiency Video Coding

Width : 960 pixels

Height : 720 pixels

Bit depth : 8bit

Audio Format : AAC

Format/Info : Advanced Audio Codec

Channel(s) : 2 channels

Language : English

Text Format : srt

Language : English

Telegram  Download Guide  Donate

IMDb Rating 8.9 18,578 votes

Director

Director

Cast

Similar titles

The Hobbit: An Unexpected Journey (2012)
Kung Fu Hustle (2004)
The Hobbit: The Desolation of Smaug (2013)
Jumanji (1995)
Seven Samurai (1954)
The Hobbit: The Battle of the Five Armies (2014)
Curse of the Golden Flower (2006)
Ayirathil Oruvan (2010)
Run Baby Run (2012)
Monster Hunter (2020)
Perfume: The Story of a Murderer (2006)
The Lord of the Rings: The Two Towers (2002)
CinemaKottaga