Video Sources 61 Views

  • Watch trailer
Zana (2019)

Zana (2019)

Sep. 21, 2019Kosovo97 Min.TV-MA
Your rating: 0
9 1 vote

Synopsis

Haunted by her long-suppressed past and pressured by family to seek treatment from mystical healers for her infertility, a Kosovar woman struggles to reconcile the expectations of motherhood with a legacy of wartime brutality.

Zana (2019) 720p 10bit AMZN WEB-DL x265 HEVC AAC 2.0 – MPEG7 (380MB)

Source …: Zana.2019.1080p.AMZN.WEB-DL.DDP2.0.H.264-tG1R0

Format : Matroska
Format version : Version 4
File size : 379 MiB
Duration : 1 h 36 min
Overall bit rate : 552 kb/s
Movie name : MPEG7 | Zana.2019.720p.10bit.AMZN.WEB-DL.x265.2CH.HEVC-MPEG7 | www.cinemakottaga.ml
Encoded date : UTC 2021-11-22 14:36:46
Writing application : mkvmerge v63.0.0 (‘Everything’) 64-bit
Writing library : libebml v1.4.2 + libmatroska v1.6.4
Cover : Yes
Attachments : cover.jpg

Video
ID : 1
Format : HEVC
Format/Info : High Efficiency Video Coding
Format profile : Main 10@L3.1@Main
Codec ID : V_MPEGH/ISO/HEVC
Duration : 1 h 36 min
Bit rate : 478 kb/s
Width : 1 280 pixels
Height : 694 pixels
Display aspect ratio : 1.85:1
Frame rate mode : Constant
Frame rate : 23.976 (24000/1001) FPS
Color space : YUV
Chroma subsampling : 4:2:0
Bit depth : 10 bits
Bits/(Pixel*Frame) : 0.022
Stream size : 329 MiB (87%)
Title : MPEG7 | www.cinemakottaga.ml
Default : Yes
Forced : No
Color range : Limited
Color primaries : BT.709
Transfer characteristics : BT.709
Matrix coefficients : BT.709

Audio
ID : 2
Format : AAC LC SBR
Format/Info : Advanced Audio Codec Low Complexity with Spectral Band Replication
Commercial name : HE-AAC
Format settings : NBC
Codec ID : A_AAC-5
Duration : 1 h 36 min
Bit rate : 72.0 kb/s
Channel(s) : 2 channels
Channel layout : L R
Sampling rate : 48.0 kHz
Frame rate : 23.438 FPS (2048 SPF)
Compression mode : Lossy
Delay relative to video : -105 ms
Stream size : 49.5 MiB (13%)
Title : MPEG7 | www.cinemakottaga.ml
Language : Albanian
Default : Yes
Forced : No

Text
ID : 3
Format : UTF-8
Codec ID : S_TEXT/UTF8
Codec ID/Info : UTF-8 Plain Text
Duration : 1 h 22 min
Bit rate : 26 b/s
Count of elements : 521
Stream size : 16.0 KiB (0%)
Title : MPEG7 | www.cinemakottaga.ml
Language : English
Default : No
Forced : No

 

 

Zana (2019) 1080p 10bit AMZN WEB-DL x265 HEVC DDP 2.0 – MPEG7 (1.2GB)

Source …: Zana.2019.1080p.AMZN.WEB-DL.DDP2.0.H.264-tG1R0

Format : Matroska
Format version : Version 4
File size : 1.23 GiB
Duration : 1 h 36 min
Overall bit rate : 1 825 kb/s
Movie name : MPEG7 | Zana.2019.1080p.10bit.AMZN.WEB-DL.x265.HEVC.DDP.2.0-MPEG7 | www.cinemakottaga.ml
Encoded date : UTC 2021-11-22 14:31:54
Writing application : mkvmerge v63.0.0 (‘Everything’) 64-bit
Writing library : libebml v1.4.2 + libmatroska v1.6.4
Cover : Yes
Attachments : cover.jpg

Video
ID : 1
Format : HEVC
Format/Info : High Efficiency Video Coding
Format profile : Main 10@L4@High
Codec ID : V_MPEGH/ISO/HEVC
Duration : 1 h 36 min
Bit rate : 1 599 kb/s
Width : 1 920 pixels
Height : 1 040 pixels
Display aspect ratio : 1.85:1
Frame rate mode : Constant
Frame rate : 23.976 (24000/1001) FPS
Color space : YUV
Chroma subsampling : 4:2:0
Bit depth : 10 bits
Bits/(Pixel*Frame) : 0.033
Stream size : 1.07 GiB (88%)
Title : MPEG7 | www.cinemakottaga.ml
Default : Yes
Forced : No
Color range : Limited

Audio
ID : 2
Format : E-AC-3
Format/Info : Enhanced AC-3
Commercial name : Dolby Digital Plus
Codec ID : A_EAC3
Duration : 1 h 36 min
Bit rate mode : Constant
Bit rate : 224 kb/s
Channel(s) : 2 channels
Channel layout : L R
Sampling rate : 48.0 kHz
Frame rate : 31.250 FPS (1536 SPF)
Compression mode : Lossy
Stream size : 154 MiB (12%)
Title : MPEG7 | www.cinemakottaga.ml
Language : Albanian
Service kind : Complete Main
Default : Yes
Forced : No

Text
ID : 3
Format : UTF-8
Codec ID : S_TEXT/UTF8
Codec ID/Info : UTF-8 Plain Text
Duration : 1 h 22 min
Bit rate : 26 b/s
Count of elements : 521
Stream size : 16.0 KiB (0%)
Title : MPEG7 | www.cinemakottaga.ml
Language : English
Default : No
Forced : No

 

 

 

Telegram  Download Guide  Donate

Zana (2019)
Zana (2019)
Zana (2019)
Zana (2019)
Original title Zana
IMDb Rating 8.6 4,512 votes
TMDb Rating 7.8 7 votes

Director

Cast

Mensur Safqiu isDr. Murati
Dr. Murati
Çun Lajçi isLume's Father
Lume's Father
Rozafa Celaj isHysterical Girl
Hysterical Girl
Alketa Sylaj isSick Girl on TV
Sick Girl on TV

Similar titles

The Soul (2021)
The Way We Laughed (1998)
My Little Bride (2004)
Bliss (2021)
Much Ado About Nothing
Judas and the Black Messiah (2021)
Remember the Titans (2000)
Godha (2017)
Apocalypto (2006)
Honsla Rakh (2021)
CODA (2021)
A Man Called Ove (2015)