Grahan

Grahan

Jun. 24, 2021
Your rating: 0
6 1 vote

Seasons and episodes

1Season 1 Jun. 24, 2021
  • There are still no episodes this season

Video trailer

Synopsis

It’s 1984 – a tender love story succumbs to the anti-Sikh riots. It’s 2016 – IPS officer Amrita Singh uncovers a secret connecting that past to her present.

GRAHAN S01 1080p HS WEB-DL HEVC 10bit DDP 5.1 PoOlLa (4.2 GB)

Format : Matroska
Format version : Version 4
Writing application : mkvmerge v56.1.0 (‘My Friend’) 64-bit
Writing library : libebml v1.4.2 + libmatroska v1.6.4

Video
ID : 1
Format : HEVC
Format/Info : High Efficiency Video Coding
Format profile : Main 10@L4@High
Codec ID : V_MPEGH/ISO/HEVC
Width : 1 920 pixels
Height : 1 080 pixels
Display aspect ratio : 16:9
Frame rate mode : Constant
Frame rate : 25.000 FPS
Color space : YUV
Chroma subsampling : 4:2:0
Bit depth : 10 bits
Default : Yes
Forced : No
Color range : Limited
Color primaries : BT.709
Transfer characteristics : BT.709
Matrix coefficients : BT.709

Audio
ID : 2
Format : E-AC-3
Format/Info : Enhanced AC-3
Commercial name : Dolby Digital Plus
Bit rate mode : Constant
Bit rate : 192 kb/s
Channel(s) : 6 channels
Channel layout : L R C LFE Ls Rs
Sampling rate : 48.0 kHz
Stream size : 68.4 MiB (13%)
Language : Hindi

Text
ID : 3
Format : UTF-8
Codec ID : S_TEXT/UTF8
Language : English
Default : Yes
Forced : No

GRAHAN S01 720p HS WEB-DL HEVC 10bit AAC 2.0 PoOlLa (2.2 GB)

Format : Matroska
Format version : Version 4
Writing application : mkvmerge v56.1.0 (‘My Friend’) 64-bit
Writing library : libebml v1.4.2 + libmatroska v1.6.4

Video
ID : 1
Format : HEVC
Format/Info : High Efficiency Video Coding
Format profile : Main 10@L4@Main
Width : 1 280 pixels
Height : 720 pixels
Display aspect ratio : 16:9
Frame rate mode : Constant
Frame rate : 25.000 FPS
Color space : YUV
Chroma subsampling : 4:2:0
Bit depth : 10 bits
Default : Yes
Forced : No
Color range : Limited
Color primaries : BT.709
Transfer characteristics : BT.709
Matrix coefficients : BT.709

Audio
ID : 2
Format : AAC LC SBR
Format/Info : Advanced Audio Codec Low Complexity with Spectral Band Replication
Commercial name : HE-AAC
Format settings : NBC
Bit rate : 96.0 kb/s
Channel(s) : 2 channels
Channel layout : L R
Sampling rate : 48.0 kHz
Frame rate : 23.438 FPS (2048 SPF)
Compression mode : Lossy

Text
ID : 3
Format : UTF-8
Codec ID : S_TEXT/UTF8
Stream size : 22.5 KiB (0%)
Language : English

Telegram  Download Guide  Donate

Grahan
Grahan
Grahan
Grahan
Grahan
Grahan
Grahan
Grahan
Grahan
Grahan
Original title Grahan
TMDb Rating 6 1 votes
First air date Jun. 24, 2021
Last air date Jun. 24, 2021
Seasons 1
Episodes 8
Average Duration 52 minutes

Similar titles

Memories of the Alhambra
High (2020)
Sisyphus
Sex Education
Love Exposure
Alice in Borderland
Scenes from a Marriage
Dash & Lily
Mysteries of Lisbon
Persona
Paatal Lok
Signal
CinemaKottaga