Money Heist

Money Heist

May. 02, 2017
Your rating: 0
4.3 3 votes

Creator

Álex Pina
Creator

Cast

Video trailer

Synopsis

To carry out the biggest heist in history, a mysterious man called The Professor recruits a band of eight robbers who have a single characteristic: none of them has anything to lose. Five months of seclusion – memorizing every step, every detail, every probability – culminate in eleven days locked up in the National Coinage and Stamp Factory of Spain, surrounded by police forces and with dozens of hostages in their power, to find out whether their suicide wager will lead to everything or nothing.

Money Heist S05E01 720p NF WEB-DL AV1 10bit Opus 2.0 PoOlLa (173 MB)

Format : Matroska
Format version : Version 4
File size : 174 MiB
Duration : 49 min 24 s
Overall bit rate : 491 kb/s
Encoded date : UTC 2021-09-03 10:21:02
Writing application : mkvmerge v56.1.0 (‘My Friend’) 64-bit
Writing library : libebml v1.4.2 + libmatroska v1.6.4

Video
ID : 1
Format : AV1
Format/Info : AOMedia Video 1
Format profile : Main@L3.1
Codec ID : V_AV1
Duration : 49 min 24 s
Bit rate : 428 kb/s
Width : 1 280 pixels
Height : 720 pixels
Display aspect ratio : 16:9
Frame rate mode : Constant
Frame rate : 24.000 FPS
Color space : YUV
Chroma subsampling : 4:2:0
Bit depth : 10 bits
Bits/(Pixel*Frame) : 0.019
Stream size : 151 MiB (87%)
Default : Yes
Forced : No
Color range : Limited
Color primaries : BT.709
Transfer characteristics : BT.709
Matrix coefficients : BT.709

Audio
ID : 2
Format : Opus
Codec ID : A_OPUS
Duration : 49 min 24 s
Bit rate : 61.5 kb/s
Channel(s) : 2 channels
Channel layout : L R
Sampling rate : 48.0 kHz
Frame rate : 50.000 FPS (960 SPF)
Compression mode : Lossy
Stream size : 21.7 MiB (13%)
Title : European Spanish
Writing library : Lavc59.1.100 libopus
Language : Spanish
Default : Yes
Forced : No

Text
ID : 3
Format : UTF-8
Codec ID : S_TEXT/UTF8
Codec ID/Info : UTF-8 Plain Text
Duration : 44 min 50 s
Bit rate : 75 b/s
Count of elements : 663
Stream size : 24.9 KiB (0%)
Title : English
Language : English
Default : Yes
Forced : No

Money Heist S05E02 720p NF WEB-DL AV1 10bit Opus 2.0 PoOlLa (190 MB)

Format : Matroska
Format version : Version 4
File size : 192 MiB
Duration : 52 min 12 s
Overall bit rate : 513 kb/s
Encoded date : UTC 2021-09-03 10:45:02
Writing application : mkvmerge v56.1.0 (‘My Friend’) 64-bit
Writing library : libebml v1.4.2 + libmatroska v1.6.4

Video
ID : 1
Format : AV1
Format/Info : AOMedia Video 1
Format profile : Main@L3.1
Codec ID : V_AV1
Duration : 52 min 12 s
Bit rate : 449 kb/s
Width : 1 280 pixels
Height : 720 pixels
Display aspect ratio : 16:9
Frame rate mode : Constant
Frame rate : 24.000 FPS
Color space : YUV
Chroma subsampling : 4:2:0
Bit depth : 10 bits
Bits/(Pixel*Frame) : 0.020
Stream size : 168 MiB (87%)
Default : Yes
Forced : No
Color range : Limited
Color primaries : BT.709
Transfer characteristics : BT.709
Matrix coefficients : BT.709

Audio
ID : 2
Format : Opus
Codec ID : A_OPUS
Duration : 52 min 12 s
Bit rate : 62.4 kb/s
Channel(s) : 2 channels
Channel layout : L R
Sampling rate : 48.0 kHz
Frame rate : 50.000 FPS (960 SPF)
Compression mode : Lossy
Stream size : 23.3 MiB (12%)
Title : European Spanish
Writing library : Lavc59.1.100 libopus
Language : Spanish
Default : No
Forced : No

Text
ID : 3
Format : UTF-8
Codec ID : S_TEXT/UTF8
Codec ID/Info : UTF-8 Plain Text
Duration : 49 min 42 s
Bit rate : 57 b/s
Count of elements : 654
Stream size : 21.1 KiB (0%)
Title : English
Language : English
Default : Yes
Forced : No

Money Heist S05E03 720p NF WEB-DL AV1 10bit Opus 2.0 PoOlLa (150 MB)

Format : Matroska
Format version : Version 4
File size : 150 MiB
Duration : 49 min 30 s
Overall bit rate : 423 kb/s
Encoded date : UTC 2021-09-03 10:41:10
Writing application : mkvmerge v56.1.0 (‘My Friend’) 64-bit
Writing library : libebml v1.4.2 + libmatroska v1.6.4

Video
ID : 1
Format : AV1
Format/Info : AOMedia Video 1
Format profile : Main@L3.1
Codec ID : V_AV1
Duration : 49 min 30 s
Bit rate : 358 kb/s
Width : 1 280 pixels
Height : 720 pixels
Display aspect ratio : 16:9
Frame rate mode : Constant
Frame rate : 24.000 FPS
Color space : YUV
Chroma subsampling : 4:2:0
Bit depth : 10 bits
Bits/(Pixel*Frame) : 0.016
Stream size : 127 MiB (85%)
Default : Yes
Forced : No
Color range : Limited
Color primaries : BT.709
Transfer characteristics : BT.709
Matrix coefficients : BT.709

Audio
ID : 2
Format : Opus
Codec ID : A_OPUS
Duration : 49 min 30 s
Bit rate : 62.4 kb/s
Channel(s) : 2 channels
Channel layout : L R
Sampling rate : 48.0 kHz
Frame rate : 50.000 FPS (960 SPF)
Compression mode : Lossy
Stream size : 22.1 MiB (15%)
Title : European Spanish
Writing library : Lavc59.1.100 libopus
Language : Spanish
Default : Yes
Forced : No

Text
ID : 3
Format : UTF-8
Codec ID : S_TEXT/UTF8
Codec ID/Info : UTF-8 Plain Text
Duration : 45 min 30 s
Bit rate : 75 b/s
Count of elements : 661
Stream size : 25.3 KiB (0%)
Title : English
Language : English
Default : Yes
Forced : No

Money Heist S05E04 720p NF WEB-DL AV1 10bit Opus 2.0 PoOlLa (180 MB)

Format : Matroska
Format version : Version 4
File size : 182 MiB
Duration : 51 min 34 s
Overall bit rate : 493 kb/s
Encoded date : UTC 2021-09-03 11:40:41
Writing application : mkvmerge v56.1.0 (‘My Friend’) 64-bit
Writing library : libebml v1.4.2 + libmatroska v1.6.4

Video
ID : 1
Format : AV1
Format/Info : AOMedia Video 1
Format profile : Main@L3.1
Codec ID : V_AV1
Duration : 51 min 34 s
Bit rate : 429 kb/s
Width : 1 280 pixels
Height : 720 pixels
Display aspect ratio : 16:9
Frame rate mode : Constant
Frame rate : 24.000 FPS
Color space : YUV
Chroma subsampling : 4:2:0
Bit depth : 10 bits
Bits/(Pixel*Frame) : 0.019
Stream size : 158 MiB (87%)
Default : Yes
Forced : No
Color range : Limited
Color primaries : BT.709
Transfer characteristics : BT.709
Matrix coefficients : BT.709

Audio
ID : 2
Format : Opus
Codec ID : A_OPUS
Duration : 51 min 34 s
Bit rate : 62.4 kb/s
Channel(s) : 2 channels
Channel layout : L R
Sampling rate : 48.0 kHz
Frame rate : 50.000 FPS (960 SPF)
Compression mode : Lossy
Stream size : 23.0 MiB (13%)
Title : European Spanish
Writing library : Lavc59.1.100 libopus
Language : Spanish
Default : No
Forced : No

Text
ID : 3
Format : UTF-8
Codec ID : S_TEXT/UTF8
Codec ID/Info : UTF-8 Plain Text
Duration : 47 min 21 s
Bit rate : 58 b/s
Count of elements : 582
Stream size : 20.2 KiB (0%)
Title : English
Language : English
Default : Yes
Forced : No

Money Heist S05E05 720p NF WEB-DL AV1 10bit Opus 2.0 PoOlLa (165 MB)

Format : Matroska
Format version : Version 4
File size : 166 MiB
Duration : 54 min 32 s
Overall bit rate : 425 kb/s
Encoded date : UTC 2021-09-03 11:28:21
Writing application : mkvmerge v56.1.0 (‘My Friend’) 64-bit
Writing library : libebml v1.4.2 + libmatroska v1.6.4

Video
ID : 1
Format : AV1
Format/Info : AOMedia Video 1
Format profile : Main@L3.1
Codec ID : V_AV1
Duration : 54 min 31 s
Bit rate : 361 kb/s
Width : 1 280 pixels
Height : 720 pixels
Display aspect ratio : 16:9
Frame rate mode : Constant
Frame rate : 24.000 FPS
Color space : YUV
Chroma subsampling : 4:2:0
Bit depth : 10 bits
Bits/(Pixel*Frame) : 0.016
Stream size : 141 MiB (85%)
Default : Yes
Forced : No
Color range : Limited
Color primaries : BT.709
Transfer characteristics : BT.709
Matrix coefficients : BT.709

Audio
ID : 2
Format : Opus
Codec ID : A_OPUS
Duration : 54 min 32 s
Bit rate : 62.4 kb/s
Channel(s) : 2 channels
Channel layout : L R
Sampling rate : 48.0 kHz
Frame rate : 50.000 FPS (960 SPF)
Compression mode : Lossy
Stream size : 24.3 MiB (15%)
Title : European Spanish
Writing library : Lavc59.1.100 libopus
Language : Spanish
Default : No
Forced : No

Text
ID : 3
Format : UTF-8
Codec ID : S_TEXT/UTF8
Codec ID/Info : UTF-8 Plain Text
Duration : 50 min 30 s
Bit rate : 55 b/s
Count of elements : 628
Stream size : 20.6 KiB (0%)
Title : English
Language : English
Default : Yes
Forced : No

Telegram  Download Guide  Donate

Money Heist
Money Heist
Money Heist
Money Heist
Money Heist
Money Heist
Money Heist
Money Heist
Money Heist
Money Heist
Original title La casa de papel
TMDb Rating 8.3 13,622 votes
First air date May. 02, 2017
Last air date Apr. 03, 2020
Seasons 3
Episodes 41
Average Duration 70 minutes

Similar titles

Mouse
Asur
Grahan
Scenes from a Marriage
Equinox
Ray
Tayee (2018)
Crash Landing on You
Paatal Lok
WandaVision
Mirzapur
Incorporated
CinemaKottaga