Navarasa

Navarasa

Aug. 06, 2021
Your rating: 0
7 1 vote

Seasons and episodes

1Season 1 Aug. 06, 2021

Creator

Cast

Video trailer

Synopsis

From compassion to courage, amusement to awe, nine human emotions as determined by Indian aesthetic theory are explored in this anthology series.

Navarasa S01 Tamil 1080p NF WEB-DL HEVC 10bit AAC 5.1 PoOlLa (4 GB)

Format : Matroska
Format version : Version 4
Writing application : mkvmerge v56.1.0 (‘My Friend’) 64-bit
Writing library : libebml v1.4.2 + libmatroska v1.6.4

Video
ID : 1
Format : HEVC
Format/Info : High Efficiency Video Coding
Format profile : Main 10@L4@High
Width : 1 920 pixels
Height : 1 080 pixels
Display aspect ratio : 16:9
Frame rate mode : Constant
Frame rate : 23.976 (24000/1001) FPS
Color space : YUV
Bit depth : 10 bits

Audio
ID : 2
Format : AAC LC
Format/Info : Advanced Audio Codec Low Complexity
Codec ID : A_AAC-2
Bit rate : 304 kb/s
Channel(s) : 6 channels
Channel layout : C L R Ls Rs LFE
Sampling rate : 48.0 kHz
Frame rate : 46.875 FPS (1024 SPF)
Compression mode : Lossy
Language : Tamil

Text
ID : 3
Format : UTF-8
Codec ID : S_TEXT/UTF8
Language : English
Forced : No

Navarasa S01 Tamil 1080p NF WEB-DL AV1 10bit Opus 5.1 SMK (2.2 GB)

Format : Matroska
Format version : Version 4

Video
ID : 1
Format : AV1
Format/Info : AOMedia Video 1
Format profile : Main@L4.0
Codec ID : V_AV1
Width : 1 920 pixels
Height : 1 080 pixels
Display aspect ratio : 16:9
Frame rate mode : Constant
Frame rate : 24.000 FPS
Color space : YUV
Chroma subsampling : 4:2:0
Bit depth : 10 bits
Default : Yes
Forced : No
Color range : Limited

Audio
ID : 2
Format : Opus
Codec ID : A_OPUS
Bit rate : 204 kb/s
Channel(s) : 6 channels
Channel layout : L R C Lb Rb LFE
Sampling rate : 48.0 kH
Stream size : 45.1 MiB (29%)
Writing library : Lavc59.1.100 libopus
Language : Tamil

Text #1
ID : 3
Format : UTF-8
Codec ID : S_TEXT/UTF8
Stream size : 10.3 KiB (0%)
Language : English

Telegram  Download Guide  Donate

Navarasa
Navarasa
Navarasa
Navarasa
Navarasa
Navarasa
Navarasa
Navarasa
Navarasa
Navarasa
Original title Navarasa
First air date Aug. 06, 2021
Seasons 1
Episodes 9

Similar titles

WandaVision
Sisyphus
Scenes from a Marriage
Ray
Dash & Lily
Mysteries of Lisbon
Jupiters Legacy
Dr. Brain
Alice in Borderland
The Corner
Paava Kadhaigal (2020)
Crash Landing on You
CinemaKottaga